#TITLE:Together Forever (Lover's Leap Remix);
#SUBTITLE:;
#ARTIST:Rick Astley;
#TITLETRANSLIT:;
#SUBTITLETRANSLIT:;
#ARTISTTRANSLIT:;
#GENRE:;
#CREDIT:;
#MENUCOLOR:;
#BANNER:Together Forever (Lover's Leap Remix).png;
#BACKGROUND:Together Forever (Lover's Leap Remix)-BG.png;
#LYRICSPATH:;
#CDTITLE:;
#MUSIC:Together Forever (Lover's Leap Remix).mp3;
#OFFSET:-0.040;
#SAMPLESTART:51.852;
#SAMPLELENGTH:12.000;
#SELECTABLE:YES;
#LISTSORT:;
#DISPLAYBPM:115.000;
#BPMS:0.000=115.140;
#STOPS:;
#TICKCOUNT:0.000=2;
#BGCHANGES:;
#KEYSOUNDS:;
#ATTACKS:;

//---------------dance-single - HEAVY----------------
#NOTES:
     dance-single:
     HEAVY:
     Hard:
     6:
     0.404,0.400,0.028,0.085,0.113:
0000
0000
0000
0000
,
0000
0000
0000
0000
,
0000
0000
0000
0000
,
0000
0000
0000
0000
,
0000
0000
0000
0000
,
0001
0010
0100
0010
0000
0001
0100
0010
,
0000
0010
1000
0100
0000
0100
1000
0000
,
0020
0000
1030
0200
0000
1300
0010
0000
,
1000
0000
0100
1000
0000
0000
0001
0000
0100
0001
0000
0000
1000
0000
0100
1000
,
0001
0011
1001
1100
,
0010
0001
0010
0100
2000
0000
3100
0000
,
1000
0100
0001
0100
1000
0010
0001
0010
,
1000
0001
0100
0010
,
1000
0000
0001
0100
0010
0000
0100
0000
,
0010
1000
0100
1000
0010
0100
0001
0000
,
0001
1000
0001
0100
1000
0001
1000
0100
,
0010
0000
0000
0000
0001
0000
0000
0000
0100
1000
0010
0000
0010
1000
0100
0000
,
1000
0000
0000
1000
0000
1000
0000
0000
0100
0000
0000
0100
0000
0000
0100
0000
,
0010
0001
0010
0100
0000
1000
0000
0001
,
0100
1000
0000
0001
0100
1000
0100
0001
,
2000
0000
0000
0000
0000
0000
3002
0000
0000
0000
2003
0000
0000
3000
0100
0000
,
0010
0000
0000
0001
0000
0000
0100
0000
0000
0000
0001
0000
0000
0010
0000
0000
,
1000
0000
0000
1000
0000
1000
0000
0000
0001
0000
0000
0001
0000
0000
0001
0000
,
1000
0100
1000
0001
0100
0001
1000
0001
,
0020
0000
0000
0000
0230
0000
0000
0000
0000
0300
1000
0000
0100
0000
0010
0000
,
0001
0100
0010
1000
0000
1000
0100
0010
,
0000
1000
0100
0010
0000
0001
0100
1000
,
0001
0100
0010
1000
0000
0010
0100
0001
,
1000
0000
0010
1000
0000
0000
0001
0000
0010
0001
0000
0000
1000
0000
0001
0000
,
0010
0001
0100
0010
0000
0001
0010
0100
,
0000
0001
0010
0100
0000
0001
0010
0100
,
1000
0010
0100
0010
0000
1000
0100
0010
,
0001
0000
1000
0000
0001
0000
0000
0000
1000
0000
0001
0000
1000
0000
0001
0100
,
0010
0100
0010
1000
0000
0010
1000
0001
,
0000
0100
0001
0010
0000
1000
0100
0010
,
0001
0100
0010
1000
0000
0100
1000
0000
,
0001
0000
0000
0000
1000
0000
0001
1000
0001
0000
1000
0000
0010
0000
0100
0000
,
0001
0000
0000
0100
0000
0000
0010
0000
0000
0000
0100
0000
0010
1000
0000
0000
,
1000
0000
0000
0010
0000
0000
0100
0000
0000
0000
1000
0000
0100
0000
0001
0000
,
0010
0100
1000
0010
0000
1000
0100
0010
,
0001
0100
0010
1000
0000
0001
0100
1000
,
0100
0001
0010
0001
0000
1000
0010
1000
,
0000
0001
0100
0001
0000
1000
0010
0100
,
0001
0010
0100
0010
0000
0001
1000
0100
,
1000
0000
0100
1000
0000
0000
0001
0000
0010
0001
0000
0000
1000
0000
0001
0000
,
1000
0010
1000
0100
0000
1000
0001
0100
,
0000
0001
1000
0010
0000
1000
0100
1000
,
0010
1000
0100
1000
0000
0001
0010
0000
,
0001
0000
0010
0001
0000
0000
1000
0000
0010
1000
0000
0000
0001
0000
0100
0000
,
0020
0000
0000
0000
,
0030
0000
0000
0000
;

//---------------dance-single - LIGHT----------------
#NOTES:
     dance-single:
     LIGHT:
     Easy:
     2:
     0.137,0.208,0.000,0.085,0.000:
0000
0000
0000
0000
,
0000
0000
0000
0000
,
0000
0000
0000
0000
,
0000
0000
0000
0000
,
0000
0000
0000
0000
,
1000
0000
0000
0000
,
0001
0000
0000
0000
,
0010
0000
0100
0000
,
0020
0000
0030
0000
,
0000
0001
0001
0000
,
0001
1000
0001
0000
,
1000
0000
0100
0000
,
0002
0000
0003
0000
,
0000
1000
1000
0000
,
1000
0010
0001
0000
,
0010
0100
0010
0100
,
0020
0000
0030
0000
,
1000
0000
1000
0000
,
0100
0000
0100
0000
,
0001
0000
1000
0000
,
0002
0000
0003
0000
,
0001
0000
0010
0000
,
1000
0000
0010
0000
,
0001
0000
1000
0000
,
0200
0000
0300
0000
,
1000
0000
0001
0000
,
1000
0001
0100
0000
,
0010
0000
1000
0000
,
0200
0000
0300
0000
,
1000
0000
0001
0000
,
1000
0001
0100
0000
,
0010
0000
0100
0000
,
0020
0000
0030
0000
,
1000
0000
0010
0000
,
0001
0000
0100
0000
,
0010
0000
0001
0000
,
1000
0001
0000
0000
,
1000
1000
1000
0100
,
0001
0001
0001
0010
,
1000
0001
1000
0001
,
0010
0000
0100
0000
,
0010
0000
0001
0000
,
0100
0000
0001
0000
,
1000
0001
1000
0001
,
2000
0000
3000
0000
,
1000
0000
0010
0000
,
0100
0000
0001
0000
,
0010
0100
0010
0100
,
0020
0000
0000
0000
,
0030
0000
0000
0000
;

//---------------dance-single - STANDARD----------------
#NOTES:
     dance-single:
     STANDARD:
     Medium:
     4:
     0.280,0.346,0.094,0.254,0.009:
0000
0000
0000
0000
,
0000
0000
0000
0000
,
0000
0000
0000
0000
,
0000
0000
0000
0000
,
0000
0000
0000
0000
,
0010
0000
0001
0100
0000
0000
0010
0000
,
0010
0000
1000
0100
0000
0000
0000
0000
,
0020
0000
0030
0200
0000
0000
0300
0000
,
1001
0000
0000
1001
0000
0000
0110
0000
,
1001
1000
0002
0003
,
1000
0100
0001
0000
0100
0000
0000
0000
,
0010
0100
0001
0100
,
0020
0030
1000
0001
,
1000
0000
0010
0100
0020
0000
0030
0000
,
1000
0100
0001
0000
,
0001
0000
0100
0000
1000
0100
1000
0000
,
0002
0000
0003
0000
1000
0001
1000
0000
,
0001
0001
0100
0100
,
1000
1000
0100
0100
,
0010
0100
1000
0100
,
0020
0000
0002
0033
,
0001
0010
2000
3001
,
1000
0010
0002
1003
,
1000
0100
0010
0100
,
0020
0002
0000
0033
,
0002
0103
2000
3100
,
0001
0100
0010
1000
0000
0000
0100
0000
,
2000
3010
0002
0013
,
0100
0000
0000
0010
0000
0000
0100
0000
,
0020
1030
0200
1300
,
0001
0010
0100
1000
0000
0100
0010
0000
,
0002
0000
1003
0002
0000
1003
0100
0000
,
2002
0000
0000
3003
,
1000
0000
0010
1000
0000
0010
0100
0000
,
0001
0000
0100
0001
0000
0000
1000
0000
,
0001
0000
1000
0100
0000
0001
0100
0000
,
1100
0202
0000
0303
,
0001
0000
0000
0001
0000
0000
0001
0000
0000
0000
0000
0000
0010
0000
0000
0000
,
1000
0000
0000
1000
0000
0000
1000
0000
0000
0000
0000
0000
1000
0000
0000
0000
,
0010
1000
0001
0100
0000
0010
1000
0000
,
1000
0100
0010
0001
0000
0001
1000
0000
,
0001
0000
0010
0001
0000
1000
0100
0000
,
1000
0000
0001
0200
0000
0000
0300
0000
,
0010
0000
0100
0001
0000
0010
1000
0000
,
1010
0000
0000
0101
0000
0000
1010
0000
,
1000
0000
0001
1000
0000
0010
0100
0000
,
0001
0000
0100
0010
0000
1000
0100
0000
,
0010
0000
0001
0100
0000
0001
1000
0000
,
0020
0200
0000
0000
,
0330
0000
0000
0000
;

//---------------dance-single - BEGINNER----------------
#NOTES:
     dance-single:
     BEGINNER:
     Beginner:
     1:
     0.106,0.136,0.000,0.000,0.000: // measure 1
0000
0000
0000
0000
,  // measure 2
0000
0000
0000
0000
,  // measure 3
0000
0000
0000
0000
,  // measure 4
0000
0000
0000
0000
,  // measure 5
0000
0000
0000
0000
,  // measure 6
1000
0000
0000
0000
,  // measure 7
0001
0000
0000
0000
,  // measure 8
0010
0000
0100
0000
,  // measure 9
0010
0000
0000
0000
,  // measure 10
0000
0001
0001
0000
,  // measure 11
1000
0000
1000
0000
,  // measure 12
0001
0000
1000
0000
,  // measure 13
0001
0000
0000
0000
,  // measure 14
0000
1000
1000
0000
,  // measure 15
0001
0000
0001
0000
,  // measure 16
0010
0000
0100
0000
,  // measure 17
0010
0000
0000
0000
,  // measure 18
1000
0000
1000
0000
,  // measure 19
0100
0000
0100
0000
,  // measure 20
0001
0000
1000
0000
,  // measure 21
0001
0000
0000
0000
,  // measure 22
0001
0000
0010
0000
,  // measure 23
1000
0000
0010
0000
,  // measure 24
0001
0000
1000
0000
,  // measure 25
0100
0000
0000
0000
,  // measure 26
1000
0000
0001
0000
,  // measure 27
1000
0000
0100
0000
,  // measure 28
0010
0000
0001
0000
,  // measure 29
0100
0000
0000
0000
,  // measure 30
1000
0000
0001
0000
,  // measure 31
1000
0000
0100
0000
,  // measure 32
0010
0000
0001
0000
,  // measure 33
0010
0000
0000
0000
,  // measure 34
1000
0000
0010
0000
,  // measure 35
0001
0000
0100
0000
,  // measure 36
1000
0000
0001
0000
,  // measure 37
0010
0010
0000
0000
,  // measure 38
1000
1000
1000
0000
,  // measure 39
0001
0001
0001
0000
,  // measure 40
1000
0000
0001
0000
,  // measure 41
0010
0000
0100
0000
,  // measure 42
0010
0000
0001
0000
,  // measure 43
0100
0000
0001
0000
,  // measure 44
1000
0000
0001
0000
,  // measure 45
1000
0000
0000
0000
,  // measure 46
1000
0000
0010
0000
,  // measure 47
0100
0000
0001
0000
,  // measure 48
0010
0000
0100
0000
,  // measure 49
0010
0000
0000
0000
;
