#TITLE:Some Like It Hot;
#SUBTITLE:;
#ARTIST:The Power Station;
#TITLETRANSLIT:;
#SUBTITLETRANSLIT:;
#ARTISTTRANSLIT:;
#GENRE:;
#CREDIT:Unknown StepMaker;
#MENUCOLOR:;
#METERTYPE:DDR X;
#BANNER:Some Like It Hot.png;
#DISC:Some Like It Hot.png;
#BACKGROUND:Some Like It Hot-BG.png;
#PREVIEW:Some Like It Hot-BG.png;
#LYRICSPATH:;
#CDTITLE:./CDTitles/Disco Viking Megamix.png;
#MUSIC:Some Like It Hot.mp3;
#SAMPLESTART:58.900;
#SAMPLELENGTH:15.000;
#SELECTABLE:YES;
#DISPLAYBPM:126.000;
#SMAVERSION:b3.0;
#ROWSPERBEAT:0=192;
#BEATSPERMEASURE:0=4;
#OFFSET:-0.020;
#BPMS:0.000=126.280;
#STOPS:;
#BGCHANGES:;

//---------------dance-single - BEGINNER----------------
#NOTES:
     dance-single:
     BEGINNER:
     Beginner:
     1:
     0.123,0.152,0.010,0.000,0.000: // measure 1
0000
0000
0000
0000
,  // measure 2
0000
0000
0000
0000
,  // measure 3
0000
0000
0000
0000
,  // measure 4
0001
0001
0000
0000
,  // measure 5
1000
1000
0000
0000
,  // measure 6
0001
0001
0000
0000
,  // measure 7
1000
1000
0000
0000
,  // measure 8
0001
0001
0001
0000
,  // measure 9
0000
0000
1000
1000
,  // measure 10
1000
0000
0000
0000
,  // measure 11
0100
0000
0000
0000
,  // measure 12
0001
0001
0001
0000
,  // measure 13
0000
0000
1000
1000
,  // measure 14
1000
0000
0000
0000
,  // measure 15
0001
0000
0000
0000
,  // measure 16
0100
0100
0100
0000
,  // measure 17
0000
0000
0010
0010
,  // measure 18
0010
0000
0000
0000
,  // measure 19
0100
0000
0000
0000
,  // measure 20
0010
0010
0010
0000
,  // measure 21
0000
0000
0100
0100
,  // measure 22
0100
0000
0000
0000
,  // measure 23
0010
0000
0000
0000
,  // measure 24
0001
0000
0000
0000
,  // measure 25
1000
0000
0000
0000
,  // measure 26
0001
0000
1000
0000
,  // measure 27
0001
0000
1000
0000
,  // measure 28
0001
0000
0000
0000
,  // measure 29
0010
0000
0000
0000
,  // measure 30
0100
0100
0100
0000
,  // measure 31
0010
0010
0010
0000
,  // measure 32
1000
0000
1000
0000
,  // measure 33
0001
0000
0001
0000
,  // measure 34
1000
0000
0001
0000
,  // measure 35
1000
0000
0100
0000
,  // measure 36
0010
0000
0000
0000
,  // measure 37
0001
0000
0000
0000
,  // measure 38
1000
0000
1000
0000
,  // measure 39
0001
0000
0001
0000
,  // measure 40
0100
0000
0000
0000
,  // measure 41
0010
0000
0000
0000
,  // measure 42
0100
0000
0100
0000
,  // measure 43
0010
0000
0010
0000
,  // measure 44
0100
0000
0000
0000
,  // measure 45
1001
0000
0000
0000
,  // measure 46
0001
0000
0000
0000
,  // measure 47
1000
0000
0000
0000
,  // measure 48
0001
0001
0001
0000
,  // measure 49
0000
0000
0001
0001
,  // measure 50
0001
0000
1000
0000
,  // measure 51
0001
0000
1000
0000
,  // measure 52
0010
0010
0010
0000
;

//---------------dance-single - BASIC----------------
#NOTES:
     dance-single:
     BASIC:
     Easy:
     3:
     0.221,0.251,0.059,0.059,0.000: // measure 1
0000
0000
0000
0000
,  // measure 2
0000
0000
0000
0000
,  // measure 3
1000
0000
0000
0000
,  // measure 4
1000
1000
0000
0000
,  // measure 5
0001
0001
0000
0000
,  // measure 6
1000
1000
0000
0000
,  // measure 7
0001
1001
0000
1001
,  // measure 8
0010
0000
0100
0000
,  // measure 9
0010
0000
1000
0001
,  // measure 10
1000
0000
0100
0000
,  // measure 11
1000
0000
0001
0100
,  // measure 12
0001
0000
0010
0000
,  // measure 13
0001
0000
0010
0001
,  // measure 14
1000
0000
0001
0000
,  // measure 15
1000
0010
0100
0001
,  // measure 16
1000
0000
0010
0000
,  // measure 17
1000
0000
0001
0100
,  // measure 18
0001
0000
0010
0000
,  // measure 19
0100
0000
1000
0000
,  // measure 20
0001
0100
0001
0000
,  // measure 21
1000
0000
0010
1000
,  // measure 22
0010
0000
1000
0000
,  // measure 23
0100
0010
0001
1000
,  // measure 24
0100
0100
0000
0010
,  // measure 25
0001
0001
0000
0100
,  // measure 26
1000
0100
0001
0100
,  // measure 27
1000
0000
0001
1001
,  // measure 28
0010
0010
1000
1000
,  // measure 29
0010
0010
0000
0001
,  // measure 30
0100
0001
1000
0000
,  // measure 31
0010
1000
0001
0000
,  // measure 32
1000
1000
0001
0001
,  // measure 33
1000
0001
0010
0100
,  // measure 34
2000
3000
0002
0003
,  // measure 35
1000
0001
0100
0000
,  // measure 36
0010
0010
0100
0100
,  // measure 37
0010
0100
0001
1000
,  // measure 38
0010
0000
0010
0000
,  // measure 39
0100
0000
0100
0000
,  // measure 40
0010
0010
1000
1000
,  // measure 41
0001
1000
0010
0100
,  // measure 42
0002
0003
0200
0300
,  // measure 43
0001
0100
0010
1000
,  // measure 44
0100
0100
0010
0010
,  // measure 45
2002
3003
0100
0000
,  // measure 46
0010
0000
1000
0001
,  // measure 47
0010
0010
0001
0001
,  // measure 48
1000
0100
0001
0000
,  // measure 49
0100
0000
1000
0001
,  // measure 50
0100
0100
0010
0110
,  // measure 51
1000
1000
0001
1001
,  // measure 52
0100
0000
0000
0000
;

//---------------dance-single - DIFFICULT----------------
#NOTES:
     dance-single:
     DIFFICULT:
     Medium:
     6:
     0.342,0.352,0.178,0.099,0.039: // measure 1
0000
0000
0000
0000
,  // measure 2
0000
0000
0000
0000
,  // measure 3
0000
0000
0000
0000
,  // measure 4
0001
0000
0000
0001
0000
0000
0000
0000
0010
0000
0000
0000
1001
0000
0000
0000
,  // measure 5
1000
0000
0000
1000
0000
0000
0000
0000
0100
0000
0000
0000
1001
0000
0000
0000
,  // measure 6
0010
0000
0000
0010
0000
0000
0000
0000
0100
0000
0000
0000
0110
0000
0000
0000
,  // measure 7
1000
0001
1000
0000
0000
0001
1000
0000
,  // measure 8
0001
0100
1000
0100
,  // measure 9
0001
0000
0010
0000
1000
0100
1000
0010
,  // measure 10
1000
0010
0100
0001
,  // measure 11
0100
0000
0010
0000
1000
0001
0100
0001
,  // measure 12
0010
0001
0100
0001
,  // measure 13
1000
0000
0010
0000
1000
0001
0100
0001
,  // measure 14
1000
0100
0001
0100
,  // measure 15
1000
0000
0010
0000
1000
0100
0010
0001
,  // measure 16
1000
0001
0010
0100
,  // measure 17
1000
0000
0001
0000
0100
0001
1000
0001
,  // measure 18
0100
0010
0100
0001
,  // measure 19
1000
0000
0010
0000
0100
0010
1000
0100
,  // measure 20
0010
0001
1000
0100
,  // measure 21
0001
0000
0100
0000
1000
0010
0100
0010
,  // measure 22
1000
0001
0010
0100
,  // measure 23
0010
0001
1000
0000
0100
1000
0001
0000
,  // measure 24
0200
0000
0301
0101
,  // measure 25
0020
0000
1030
1010
,  // measure 26
2100
3001
0102
1003
,  // measure 27
0100
0000
0010
0000
0001
1000
0010
0000
,  // measure 28
0200
0000
0301
1001
,  // measure 29
0020
0000
1030
1001
,  // measure 30
2100
3010
0101
0000
,  // measure 31
0012
0103
1010
0000
,  // measure 32
1000
1000
0001
0001
,  // measure 33
1000
0000
0100
0000
0001
0100
1000
0000
,  // measure 34
0001
0001
0000
0000
1000
1000
0000
0000
,  // measure 35
0010
0000
0000
0010
0000
0000
0100
0000
0100
0000
0000
0000
0110
0000
0000
0000
,  // measure 36
0010
1000
0100
0001
,  // measure 37
1000
0000
0100
0000
1000
0001
0100
0000
,  // measure 38
0001
0000
0000
0010
0000
0000
0100
0000
,  // measure 39
0000
1000
0000
0000
0001
0010
1000
0000
,  // measure 40
0010
0100
0010
0100
,  // measure 41
1000
0001
1000
0001
,  // measure 42
0100
0100
0000
0000
0010
0010
0000
0000
,  // measure 43
1000
0000
0000
1000
0000
0000
0001
0000
0001
0000
0000
0000
1001
0000
0000
0000
,  // measure 44
0100
0001
0100
0000
0010
1000
0010
0000
,  // measure 45
2002
0000
3003
0000
0010
0000
0100
0010
,  // measure 46
0100
0001
1000
0010
,  // measure 47
1000
0010
0001
0000
0001
0010
1000
0000
,  // measure 48
1001
0010
0100
0000
,  // measure 49
1000
0000
0010
0000
0100
0010
0100
0000
,  // measure 50
0001
0000
0000
0001
0000
0000
0001
0000
1000
0000
0000
1000
0000
0000
1000
0000
,  // measure 51
0100
0000
0000
0100
0000
0000
0100
0000
0010
0000
0000
0000
0110
0000
0000
0000
,  // measure 52
0100
0000
0000
0000
;

//---------------dance-single - EXPERT----------------
#NOTES:
     dance-single:
     EXPERT:
     Hard:
     8:
     0.449,0.427,0.266,0.099,0.261: // measure 1
0000
0000
0000
0000
,  // measure 2
0000
0000
0000
0000
,  // measure 3
0000
0000
0000
0000
,  // measure 4
0100
0000
0000
0100
0000
0000
0000
0000
0010
0000
0100
0000
0010
0000
0000
0000
,  // measure 5
1000
0000
0000
1000
0000
0000
0000
0000
0001
0000
1000
0000
0001
0000
0000
0000
,  // measure 6
0010
0000
0000
0010
0000
0000
0000
0000
0100
0000
0010
0000
0100
0000
0000
0000
,  // measure 7
1000
0001
1000
0001
1000
0000
0000
0000
0000
0000
1000
0000
0100
0000
0010
0000
,  // measure 8
0001
0000
0000
0010
0000
0000
0100
0000
1000
0000
0000
0010
0000
0000
1000
0000
,  // measure 9
0100
0000
0000
0010
0000
0000
0001
0000
1000
0000
0100
0000
0001
0000
0100
0000
,  // measure 10
1000
0000
0000
0100
0000
0000
1000
0000
0001
0000
0000
0100
0000
0000
0001
0000
,  // measure 11
1000
0000
0000
0010
0000
0000
1000
0000
0100
0000
0010
0000
0001
0000
0010
0000
,  // measure 12
0100
0000
0000
1000
0000
0000
0010
0000
0100
0000
0000
0001
0000
0000
1000
0000
,  // measure 13
0100
0000
0000
0010
0000
0000
0001
0000
1000
0000
0010
0000
0001
0000
0010
0000
,  // measure 14
1000
0000
0000
0010
0000
0000
0100
0000
0001
0000
0000
0100
0000
0000
0010
0000
,  // measure 15
1000
0000
0000
0100
0000
0000
0010
0000
0001
0000
0010
0000
0100
0000
1000
0000
,  // measure 16
1001
0000
0000
0001
0000
0000
0010
0000
0100
0000
0000
1000
0000
0000
0010
0000
,  // measure 17
1000
0000
0000
0100
0000
0000
1000
0000
0001
0000
0100
0000
0010
0000
1000
0000
,  // measure 18
0010
0000
0000
0100
0000
0000
0001
0000
0010
0000
0000
0100
0000
0000
1000
0000
,  // measure 19
0100
0000
0000
0010
0000
0000
0001
0000
1000
0000
0010
0000
1000
0000
0001
0000
,  // measure 20
0010
0000
0000
0001
0000
0000
0100
0000
0010
0000
0000
1000
0000
0000
0100
0000
,  // measure 21
1000
0000
0000
0010
0000
0000
0100
0000
0001
0000
0100
0000
0010
0000
1000
0000
,  // measure 22
0001
0000
0000
0100
0000
0000
0010
0000
0000
0000
1000
0000
0100
0000
0010
0000
,  // measure 23
0001
0010
0100
1000
0001
0100
0010
0000
,  // measure 24
1000
0010
0100
0001
2000
0000
3010
0000
,  // measure 25
1000
0100
0010
0001
0200
0000
0301
0000
,  // measure 26
0101
0011
1100
1010
,  // measure 27
0010
0100
0010
0000
1000
0001
1000
0000
,  // measure 28
0001
0000
1000
0000
0010
0000
0100
0000
0002
0000
0000
0000
0010
0003
0000
0000
,  // measure 29
0100
0000
0010
0000
0001
0000
1000
0000
0020
0000
0000
0000
0100
0030
0000
0000
,  // measure 30
0101
1100
0202
0303
,  // measure 31
1010
0011
2020
3030
,  // measure 32
1000
0000
0000
1000
0000
0000
1000
0000
0100
0000
0000
0100
0000
0000
0100
0000
,  // measure 33
0010
0000
0000
0001
0000
0000
0010
0000
0001
0000
1000
0000
0100
0000
0000
0000
,  // measure 34
1001
0000
0000
0001
0000
0000
0000
0000
1001
0000
0000
1000
0000
0000
0000
0000
,  // measure 35
0110
0000
0000
0010
0000
0000
0100
0000
0110
0000
0000
0000
1001
0000
0000
0000
,  // measure 36
1000
0000
0000
0010
0000
0000
1000
0000
0001
0000
0000
0010
0000
0000
0001
0000
,  // measure 37
1000
0000
0000
0100
0000
0000
0010
0000
0001
0000
0100
0000
0010
0000
0000
0000
,  // measure 38
1000
0000
0100
1000
0000
0000
0001
0000
0100
0001
0000
0000
0010
0000
0100
0010
,  // measure 39
0000
0000
0001
0000
1000
0001
0000
0000
1000
0000
0100
0010
0000
0000
0000
0000
,  // measure 40
0001
0000
0000
1000
0000
0000
0100
0000
0010
0000
0000
0001
0000
0000
0100
0000
,  // measure 41
0010
0000
0000
1000
0000
0000
0001
0000
0100
0000
0000
0001
0000
0000
0010
0000
,  // measure 42
1100
0000
0000
0100
0000
0000
0000
0000
0011
0000
0000
0010
0000
0000
0000
0000
,  // measure 43
0101
0000
0000
0001
0000
0000
1000
0000
1010
0000
0000
0000
0110
0000
0000
0000
,  // measure 44
1000
0100
0001
0000
1000
0010
0001
0000
,  // measure 45
2002
0000
0000
0000
0000
3003
0000
0000
0010
0000
0100
0000
0010
0000
0000
0000
,  // measure 46
1000
0000
0000
0100
0000
0000
0010
0000
0000
0000
0001
0000
0100
0000
0010
0000
,  // measure 47
1000
0010
0100
0001
0010
0100
1000
0000
,  // measure 48
0001
0000
0000
0100
0000
0000
0010
0000
1000
0000
0000
0000
1001
0000
0000
0000
,  // measure 49
1000
0100
0001
0000
1000
0010
0001
0000
,  // measure 50
0110
0000
0000
0010
0000
0000
0010
0000
1001
0000
0000
1000
0000
0000
1000
0000
,  // measure 51
0110
0000
0000
0100
0000
0000
0100
0000
1001
0000
0000
0000
0001
0000
0000
0000
,  // measure 52
1000
0000
0000
0000
;
