#TITLE:Single Ladies (Put A Ring On It);
#SUBTITLE:;
#ARTIST:Beyoncé;
#TITLETRANSLIT:;
#SUBTITLETRANSLIT:;
#ARTISTTRANSLIT:Beyonce;
#GENRE:;
#CREDIT:;
#MENUCOLOR:;
#BANNER:Single Ladies (Put a Ring on It).png;
#BACKGROUND:Single Ladies (Put a Ring on It)-BG.png;
#LYRICSPATH:;
#CDTITLE:;
#MUSIC:Single Ladies (Put a Ring On It).mp3;
#OFFSET:-1.942;
#SAMPLESTART:51.056;
#SAMPLELENGTH:12.000;
#SELECTABLE:YES;
#LISTSORT:;
#BPMS:0.000=97.020;
#STOPS:;
#TICKCOUNT:0.000=2;
#BGCHANGES:;
#KEYSOUNDS:;
#ATTACKS:;

//---------------dance-single - HEAVY----------------
#NOTES:
     dance-single:
     HEAVY:
     Hard:
     7:
     0.424,0.431,0.167,0.245,0.088: // measure 1
0000
0000
0000
0000
,  // measure 2
0000
0000
0000
0000
,  // measure 3
0000
0000
0000
0000
,  // measure 4
0000
0000
0000
0000
,  // measure 5
0001
0100
0010
0010
1000
0100
0010
0010
,  // measure 6
1000
0001
0010
0001
0200
0000
0301
0000
,  // measure 7
1000
0001
0010
1000
1000
0001
0010
0001
,  // measure 8
0001
0010
0001
1000
0200
0000
1300
0000
,  // measure 9
0100
1000
0001
0001
0100
0001
1000
1000
,  // measure 10
1000
0000
0001
0000
1000
0100
0001
0000
2000
0000
0000
0000
3002
0000
0000
0000
,  // measure 11
1003
0001
0010
0101
0001
0010
1000
1100
,  // measure 12
1000
0000
0010
0000
0100
0000
0001
0000
0200
0000
0000
0000
0000
0300
0010
0000
,  // measure 13
1000
0000
0010
0000
0100
0000
0001
0000
0010
0000
0001
0100
0000
0000
0010
0000
,  // measure 14
0001
0000
0010
0000
0100
0000
1000
0000
0010
0000
0100
0001
0000
0000
0010
0000
,  // measure 15
1000
0000
0100
0000
1000
0000
0001
0000
0100
0000
0001
1000
0000
0000
0001
0000
,  // measure 16
0010
0000
0001
0000
1000
0000
0100
0000
0010
0000
0100
1000
0010
0000
1000
0000
,  // measure 17
2100
0000
0000
0000
3001
0000
0001
0000
0102
0000
0000
0000
1000
0003
1000
0000
,  // measure 18
2100
0000
3001
0001
0120
0000
0130
0100
,  // measure 19
2001
0000
3100
0100
0002
0000
0013
0010
,  // measure 20
2100
0000
3001
0001
0202
0000
0303
0010
,  // measure 21
0001
0000
0010
0000
0100
0000
0010
0000
0001
0000
1000
0100
0000
0000
0010
0000
,  // measure 22
0100
0000
1000
0000
0100
0000
0001
0000
1000
0000
0010
0100
0000
0000
0010
0000
,  // measure 23
0001
0000
0010
0000
1000
0000
0001
0000
0010
0000
0010
0001
0000
0000
0010
0000
,  // measure 24
0001
0000
0100
0000
1000
0000
0100
0000
0001
0000
1000
0001
0000
0000
0100
0000
,  // measure 25
0001
0100
1000
0010
1000
0100
0001
0010
,  // measure 26
1000
0000
0001
0000
0010
0001
1000
0000
0200
0000
0000
0000
0300
0000
0000
0000
,  // measure 27
1000
0100
0001
0010
0001
0100
1000
0010
,  // measure 28
1000
0000
0100
0000
0010
0000
0001
1000
0020
0000
0000
0000
0030
0000
0000
0000
,  // measure 29
1000
0000
0010
0100
0001
0000
0100
0000
1000
0001
0100
0000
0001
0000
1000
0000
,  // measure 30
0001
0000
0100
0000
1000
0000
0100
0000
0002
0000
0000
1000
0003
0000
0000
0000
,  // measure 31
1000
0100
0001
0010
0001
0100
1000
0010
,  // measure 32
1000
0010
1000
0001
0200
0000
0300
0010
,  // measure 33
1000
0000
0010
0000
0100
0000
0001
0000
0010
0000
0010
0100
0000
0000
0010
0000
,  // measure 34
0001
0000
0010
0000
0100
0000
1000
0000
0001
0000
1000
0001
0000
0000
1000
0000
,  // measure 35
0001
0000
0100
0000
1000
0000
0001
0000
0100
0000
1000
0100
0000
0000
0010
0000
,  // measure 36
1000
0000
0010
0000
0001
0000
1000
0000
0010
0000
0001
0100
0010
0000
1000
0000
,  // measure 37
2001
0000
3100
0100
1002
0000
0013
0010
,  // measure 38
0120
0000
0031
0001
0210
0000
1300
1000
,  // measure 39
2010
0000
3001
0001
0012
0000
1003
1000
,  // measure 40
2100
0000
3001
0001
0101
0000
0010
0100
,  // measure 41
0010
0000
0000
0000
;

//---------------dance-single - LIGHT----------------
#NOTES:
     dance-single:
     LIGHT:
     Easy:
     3:
     0.216,0.275,0.000,0.284,0.000: // measure 1
0000
0000
0000
0000
,  // measure 2
0000
0000
0000
0000
,  // measure 3
0000
0000
0000
0000
,  // measure 4
0000
0000
0000
0000
,  // measure 5
1000
0010
0001
0010
,  // measure 6
1000
0010
0200
0300
,  // measure 7
0001
0010
0001
0100
,  // measure 8
0001
0010
2000
3000
,  // measure 9
1000
0100
1000
0010
,  // measure 10
0100
0010
2000
3001
,  // measure 11
0001
0100
1000
0100
,  // measure 12
0100
1000
0002
0003
,  // measure 13
0010
1000
0100
0000
,  // measure 14
0010
1000
0100
0000
,  // measure 15
0010
0001
0100
0000
,  // measure 16
0010
1000
0010
1000
,  // measure 17
2000
3100
2000
3001
,  // measure 18
2000
3002
0203
0300
,  // measure 19
0002
0103
0002
1003
,  // measure 20
0002
2003
3020
0030
,  // measure 21
1000
0010
0100
0000
,  // measure 22
1000
0010
0100
0000
,  // measure 23
0001
0100
0010
0000
,  // measure 24
0001
0010
0100
0000
,  // measure 25
1000
0100
0100
1000
,  // measure 26
0001
0010
0200
0300
,  // measure 27
0100
0001
0001
1000
,  // measure 28
0010
0100
0002
0003
,  // measure 29
0100
0010
0010
0100
,  // measure 30
0001
1000
2000
3002
,  // measure 31
1003
0010
0010
1000
,  // measure 32
0010
1000
0200
0300
,  // measure 33
0100
1000
0010
0000
,  // measure 34
0100
1000
0010
0000
,  // measure 35
0001
0100
1000
0000
,  // measure 36
0010
0001
0100
0000
,  // measure 37
0200
0310
0200
1300
,  // measure 38
0200
0302
0023
0030
,  // measure 39
0002
1003
0002
0103
,  // measure 40
0002
0023
0230
0310
,  // measure 41
0001
0000
0000
0000
;

//---------------dance-single - STANDARD----------------
#NOTES:
     dance-single:
     STANDARD:
     Medium:
     5:
     0.297,0.333,0.000,0.265,0.000: // measure 1
0000
0000
0000
0000
,  // measure 2
0000
0000
0000
0000
,  // measure 3
0000
0000
0000
0000
,  // measure 4
0000
0000
0000
0000
,  // measure 5
0100
1000
0010
0000
0100
0001
0010
0000
,  // measure 6
0001
1000
0200
1300
,  // measure 7
0001
0100
1000
0000
0001
0100
1000
0000
,  // measure 8
0100
0001
2000
3001
,  // measure 9
0100
0001
0010
0000
0100
0001
0010
0000
,  // measure 10
0100
0010
0002
1003
,  // measure 11
1000
0001
0100
0000
0001
1000
0100
0000
,  // measure 12
0100
0010
0200
0300
,  // measure 13
0010
0000
0001
0000
1000
1000
1000
0000
,  // measure 14
0010
0000
1000
0000
0001
0001
0001
0000
,  // measure 15
0010
0000
0100
0000
0100
1000
0001
0000
,  // measure 16
0010
0000
1000
0000
0100
1000
0010
1000
,  // measure 17
0200
0000
1300
0001
0200
0000
0302
0000
,  // measure 18
2003
0000
3001
0100
0020
0000
1030
0010
,  // measure 19
2000
0000
3001
0010
0002
0000
0203
0000
,  // measure 20
0302
0000
1003
0100
0002
0000
0003
0000
,  // measure 21
0010
0000
0100
0000
1000
1000
1000
0000
,  // measure 22
0010
0000
0100
0000
0001
0001
0001
0000
,  // measure 23
0100
0000
0010
0000
0010
1000
0100
0000
,  // measure 24
0100
0000
0010
0000
0010
0001
0100
0000
,  // measure 25
0001
0100
0001
0000
0100
0010
0100
0000
,  // measure 26
0010
1000
0200
1300
,  // measure 27
0100
0010
0100
0000
1000
0001
1000
0000
,  // measure 28
1000
0001
0200
0301
,  // measure 29
0100
0001
0010
0000
0100
0010
0001
0000
,  // measure 30
1000
0001
0020
0130
,  // measure 31
0010
1000
0010
0000
0100
0010
0100
0000
,  // measure 32
0001
1000
0100
1000
0002
0000
0003
0000
,  // measure 33
0010
0000
0001
0000
0001
0100
0001
0000
,  // measure 34
0010
0000
1000
0000
1000
0100
1000
0000
,  // measure 35
0100
0000
0010
0000
0010
0100
1000
0000
,  // measure 36
0100
0000
0010
0000
0010
0100
0001
1000
,  // measure 37
0001
0000
1000
0001
2000
0000
3020
0000
,  // measure 38
0230
0000
0310
0100
0002
0000
1003
0100
,  // measure 39
2000
0000
3001
0010
0002
0000
0203
0000
,  // measure 40
0320
0000
1030
0100
0020
0000
0031
1000
,  // measure 41
0100
0000
0000
0000
;

//---------------dance-single - BEGINNER----------------
#NOTES:
     dance-single:
     BEGINNER:
     Beginner:
     1:
     0.102,0.098,0.000,0.000,0.000:
0000
0000
0000
0000
,
0000
0000
0000
0000
,
0000
0000
0000
0000
,
0000
0000
0000
0000
,
1000
0000
0001
0000
,
1000
0000
0100
0000
,
0001
0000
1000
0000
,
1000
0000
0100
0000
,
1000
0000
0100
0000
,
0001
0000
1000
0000
,
0001
0000
0100
0000
,
1000
0000
0001
0000
,
0010
0000
0100
0000
,
0010
0000
0100
0000
,
0010
0000
0100
0000
,
0010
0000
0100
0000
,
1000
0000
1000
0000
,
0001
0000
0001
0000
,
0001
0000
0001
0000
,
1000
0000
1000
0000
,
1000
0000
0100
0000
,
1000
0000
0100
0000
,
0001
0000
0010
0000
,
0001
0000
0010
0000
,
1000
0000
0100
0000
,
0001
0000
0100
0000
,
0001
0000
0100
0000
,
1000
0000
0100
0000
,
0100
0000
0010
0000
,
0100
0000
1000
0000
,
0100
0000
0010
0000
,
0100
0000
0001
0000
,
0100
0000
0010
0000
,
0100
0000
0010
0000
,
0001
0000
1000
0000
,
0001
0000
1000
0000
,
0100
0000
0010
0000
,
0100
0000
0010
0000
,
0001
0000
1000
0000
,
0001
0000
1000
0000
,
0001
0000
0000
0000
;

//---------------dance-single - CHALLENGE----------------
#NOTES:
     dance-single:
     CHALLENGE:
     Challenge:
     9:
     0.565,0.588,0.549,0.108,0.382: // measure 1
0000
0000
0000
0000
,  // measure 2
0000
0000
0000
0000
,  // measure 3
0000
0000
0000
0000
,  // measure 4
0000
0000
0000
0000
,  // measure 5
0001
0100
0010
0110
1000
0100
0010
0110
,  // measure 6
1000
0001
0010
0001
0200
0000
0301
0000
,  // measure 7
1000
0001
0010
1100
1000
0001
0010
0101
,  // measure 8
0001
0010
0001
1000
0200
0000
1300
0000
,  // measure 9
0100
1000
0001
0011
0100
0001
1000
1010
,  // measure 10
1000
0000
0001
0000
1000
0100
0001
0000
2000
0000
0000
0000
3002
0000
0000
0000
,  // measure 11
1003
0001
0010
0101
0001
0010
1000
1100
,  // measure 12
1000
0000
0010
0000
0100
0000
0001
0000
0200
0000
0000
0000
0000
0300
0010
1000
,  // measure 13
0010
1000
0001
0100
0001
0100
1000
0100
0001
0000
1000
0000
0100
0000
0010
0001
,  // measure 14
0010
0001
0100
0001
0100
0001
1000
0100
0010
0000
0001
0000
0100
0000
0010
0100
,  // measure 15
0001
0100
0010
0000
1000
0000
0001
0000
1000
0000
0100
0010
0001
0000
1000
0010
,  // measure 16
1000
0010
0100
0010
0100
0010
0100
0001
0100
0000
0010
1000
1010
0000
1001
0000
,  // measure 17
0101
0000
0000
0000
0101
0000
1001
0000
1100
0000
1000
0100
0010
0000
0011
0000
,  // measure 18
1001
0000
0101
1001
0101
0000
1100
1001
,  // measure 19
1100
0000
0000
0000
1010
0000
1001
0000
1010
0000
1000
0100
0010
0000
1001
0000
,  // measure 20
0110
0000
0000
0000
0110
0000
0001
0000
0110
0000
0000
1000
0000
0000
0010
0100
,  // measure 21
0001
0100
0010
1000
0010
0100
0001
1000
0100
0000
1000
0001
0100
0000
1000
0100
,  // measure 22
0010
0001
0100
0010
0100
0001
0010
0100
1000
0000
0001
1000
0100
0000
0010
1000
,  // measure 23
0010
0100
0001
0000
1000
0000
0100
0000
0001
0000
0100
1000
0001
0000
0100
0001
,  // measure 24
1000
0010
1000
0010
0100
0001
0100
0001
0010
0000
0001
0100
0010
0000
0100
0000
,  // measure 25
0001
0100
1000
0110
1000
0100
0001
0110
,  // measure 26
1000
0000
0001
0000
0010
0001
1000
0000
0200
0000
0000
0000
0300
0000
0000
0000
,  // measure 27
1000
0100
0001
0011
0001
0100
1000
1010
,  // measure 28
1000
0000
0100
0000
0010
0000
0001
1000
0020
0000
0000
0000
0030
0000
0000
0000
,  // measure 29
1000
0000
0010
0100
0001
0000
0100
0000
1000
0001
0100
0000
0001
0000
1000
0000
,  // measure 30
0002
0000
0100
0000
2003
0000
0100
0000
3002
0000
0000
1000
0003
0000
0000
0000
,  // measure 31
1000
0000
0001
0010
0100
0000
1000
0000
0001
1000
0001
0000
0010
0000
0001
0100
,  // measure 32
0010
0100
0001
1000
0010
1000
0001
0000
0020
0000
0000
0000
0031
0000
1000
0100
,  // measure 33
0010
0100
1000
0010
0100
0001
1000
0001
0100
0000
0010
0100
0001
0000
1000
0100
,  // measure 34
0001
0010
0100
1000
0001
0010
1000
0001
0100
0000
0010
0100
0001
0000
1000
0100
,  // measure 35
0001
0100
1000
0000
0101
0000
1000
0000
1100
0000
0010
0100
1000
0000
0001
1000
,  // measure 36
0001
0010
0100
1000
0010
0100
0001
1000
0001
0000
1000
0001
1001
0000
0110
0000
,  // measure 37
1001
0000
0000
0000
1100
0000
1001
0000
1100
0000
1000
0100
0010
0000
0001
0000
,  // measure 38
0101
0000
1010
0001
0101
0000
0011
1000
,  // measure 39
1100
0000
0000
0000
0101
0000
1000
0000
0110
0000
1000
0010
0100
0000
0101
0000
,  // measure 40
1100
0000
1100
1001
0011
0000
1010
1001
,  // measure 41
0101
0000
0000
0000
;
