#TITLE:Shackler's Revenge;
#SUBTITLE:;
#ARTIST:Guns N' Roses;
#TITLETRANSLIT:;
#SUBTITLETRANSLIT:;
#ARTISTTRANSLIT:;
#GENRE:;
#CREDIT:;
#MENUCOLOR:;
#BANNER:Shackler's Revenge.png;
#BACKGROUND:Shackler's Revenge-BG.png;
#LYRICSPATH:;
#CDTITLE:;
#MUSIC:Shackler's Revenge.mp3;
#OFFSET:0.180;
#SAMPLESTART:54.300;
#SAMPLELENGTH:12.000;
#SELECTABLE:YES;
#LISTSORT:;
#BPMS:0.000=132.000;
#STOPS:;
#TICKCOUNT:0.000=2;
#BGCHANGES:;
#KEYSOUNDS:;
#ATTACKS:;

//---------------dance-single - HEAVY----------------
#NOTES:
     dance-single:
     HEAVY:
     Hard:
     9:
     0.588,0.566,0.092,0.218,0.493:
0000
0000
0000
0000
,
0000
0000
0000
0000
,
0000
1001
0000
0000
0000
0000
0000
0000
,
0000
1001
0000
0000
0000
0000
0000
0000
,
0000
1001
0000
0000
0000
0000
0000
0000
,
0000
1001
0000
0000
0000
0000
0000
0000
,
1000
0000
0100
0000
0010
0000
0100
1000
0000
0010
0100
0001
0100
0000
0010
0000
,
0000
0000
1000
0000
0100
0000
0010
0001
0000
0001
1000
0010
1000
0000
0100
0000
,
0000
0000
1000
0000
0001
0000
0100
0001
0000
0001
0100
0010
1000
0000
0100
0000
,
0000
0000
1000
0000
0010
0000
0100
0001
0000
0001
0100
0010
1000
0000
0010
0000
,
0000
0000
1000
0000
0100
0000
0010
0001
0000
0001
0010
0100
1000
0000
0010
0000
,
0000
0000
0010
0000
0100
0000
0001
0100
0000
0010
1000
0100
1000
0000
0001
0000
,
0000
0000
0100
0000
0001
0000
0010
1000
0000
0010
1000
0010
0100
0000
0001
0000
,
0000
0000
1000
0000
0001
0000
1000
0100
0000
0001
0100
0010
2000
0000
0000
0000
,
3000
0001
0100
0000
0001
0000
1000
0100
0000
0010
1000
0100
0010
0000
0001
0000
,
0000
0000
0100
0000
0010
0000
0100
0001
0000
0010
1000
0010
0100
0000
0001
0000
,
0000
0000
1000
0000
0001
0000
1000
0100
0000
0001
1000
0100
0010
0000
0001
0000
,
0000
0000
0001
0000
0010
0000
0100
1000
0000
0001
0100
1000
0010
0000
0100
0000
,
0000
0000
0010
0000
0100
0000
0001
0100
0000
0010
1000
0010
0100
0000
0001
0000
,
0000
0000
1000
0000
0001
0000
1000
0100
0000
0100
0001
0100
0010
0000
0100
0000
,
0000
0000
1000
0000
0100
0000
0001
0100
0000
0010
1000
0100
0010
0000
0001
0000
,
0000
0000
0001
0000
1000
0000
0001
0010
0000
1000
0100
0010
0001
1000
0001
1000
,
0001
0000
0100
0000
0001
0000
0010
0000
0001
0000
1000
0100
0010
0002
0000
0000
,
1003
0000
0100
0000
1000
0000
0010
0000
1000
0000
0100
1000
0010
0200
0000
0000
,
0310
0000
0100
0000
0001
0000
0010
0000
0100
0000
1000
0100
0010
0002
0000
0000
,
1003
0100
1000
0001
1000
0010
0001
0100
,
1000
0000
0100
0000
0010
0000
0100
0000
1000
0000
0010
0100
0001
0200
0000
0000
,
0310
0000
0100
0000
0001
0000
1000
0000
0001
0000
1000
0010
1000
0002
0000
0000
,
0013
0000
0100
0000
1000
0000
0100
0000
0010
0000
0001
0010
0100
2000
0000
0000
,
3010
0010
0100
0000
1001
0000
0110
0000
,
0001
0000
0000
0100
0000
0000
1000
0000
0000
0100
0000
0000
0001
0000
0000
0000
0100
0000
0000
0000
0010
0000
0000
0000
,
1000
0000
0100
0000
0010
0000
0001
0000
0010
0000
0001
0000
,
0010
0001
0100
0001
0010
0100
2000
0000
,
3010
0100
1000
0100
0010
0001
0200
0000
,
0310
0000
0000
1000
0000
0000
0010
0000
0000
0100
0000
0000
0001
0000
0000
0000
0100
0000
0000
0000
1000
0000
0000
0000
,
0001
0000
0100
0000
1000
0000
0010
0000
1000
0000
0100
0000
,
0010
0100
1000
0100
0010
0001
0200
0000
,
0310
0100
1000
0100
0010
0001
0020
0000
,
0031
0000
0000
0100
0000
0000
1000
0000
0000
0100
0000
0000
0010
0000
0000
0000
0100
0000
0000
0000
0001
0000
0000
0000
,
0010
0000
0100
0000
1000
0000
0100
0000
1000
0000
0010
0000
,
0100
1000
0010
0100
0001
0100
0020
0000
,
1030
0100
0010
0001
1000
0001
0200
0000
,
0301
0000
0000
0100
0000
0000
1000
0000
0000
0100
0000
0000
0010
0000
0000
0100
0000
0000
0000
0000
1000
0000
0000
0000
,
0100
0000
1000
0000
0001
0000
0010
0000
0001
0000
0100
0000
,
0001
0100
0010
1000
0100
0010
0002
0000
,
0013
0100
1000
0100
0010
0001
0200
0000
,
0310
0000
0010
0000
0220
0000
0000
0330
0100
0000
0100
0000
0220
0000
0000
0000
,
0330
0000
0000
0000
;

//---------------dance-single - LIGHT----------------
#NOTES:
     dance-single:
     LIGHT:
     Easy:
     4:
     0.388,0.377,0.344,0.195,0.000: // measure 1
0000
0000
0000
0000
,  // measure 2
0000
0000
0000
0000
,  // measure 3
0000
1001
0000
0000
0000
0000
0000
0000
,  // measure 4
0000
1001
0000
0000
0000
0000
0000
0000
,  // measure 5
0000
1001
0000
0000
0000
0000
0000
0000
,  // measure 6
0000
1001
0000
0000
0000
0000
0000
0000
,  // measure 7
1001
0000
0001
0000
1000
0001
1000
0000
,  // measure 8
0001
0100
1000
0010
,  // measure 9
0001
0000
0100
0000
1000
0001
1000
0000
,  // measure 10
0010
0001
0200
1300
,  // measure 11
0110
0000
0100
0000
0010
0100
0010
0000
,  // measure 12
1000
0010
0001
0100
,  // measure 13
1000
0000
0100
0000
0010
0100
0010
0000
,  // measure 14
0001
1000
0200
0310
,  // measure 15
1001
0000
0100
0000
0010
0100
0010
0000
,  // measure 16
1000
0001
0010
0001
,  // measure 17
1000
0000
0100
0000
0001
0100
0001
0000
,  // measure 18
1000
0001
0200
0310
,  // measure 19
0110
0000
1000
0000
0001
1000
0001
0000
,  // measure 20
1000
0001
0010
1000
,  // measure 21
0100
0000
0010
0000
0100
0010
0100
0000
,  // measure 22
1000
0001
0220
0330
,  // measure 23
1000
1000
0000
0001
0000
0101
0000
1100
,  // measure 24
0000
0100
0000
0001
0000
1100
0000
0101
,  // measure 25
0000
1000
0000
0010
0000
0011
0000
1010
,  // measure 26
0000
0001
0000
1000
0010
1000
0001
0000
,  // measure 27
0100
0100
0000
1100
0000
0101
0000
0010
,  // measure 28
0000
0001
0000
0011
0000
1010
0000
1000
,  // measure 29
0000
0010
0000
1001
0000
0110
0000
1000
,  // measure 30
0100
0010
0001
1000
,  // measure 31
1001
0000
0001
0000
0001
0100
0001
0000
,  // measure 32
1001
0000
0100
0000
1000
0100
0010
0000
,  // measure 33
1001
0000
0100
0000
0010
0100
0010
0000
,  // measure 34
0002
0103
2000
3100
,  // measure 35
1001
0000
0100
0000
0001
0100
0001
0000
,  // measure 36
1000
0000
0010
0000
1000
0010
1000
0000
,  // measure 37
0100
0000
0010
0000
0100
0010
0100
0000
,  // measure 38
2000
3100
0002
0013
,  // measure 39
0110
0000
0010
0000
0100
0001
1000
0000
,  // measure 40
0010
0000
0100
0000
1100
1000
0001
0000
,  // measure 41
1000
0000
0100
0000
0001
0100
1000
0000
,  // measure 42
0002
0013
2000
3100
,  // measure 43
1001
0000
0010
0000
0100
1000
0010
0000
,  // measure 44
1000
0000
0010
0000
0001
0010
0100
0000
,  // measure 45
1000
0000
0001
0000
1000
0001
0100
0000
,  // measure 46
0020
1030
0200
0301
,  // measure 47
0000
1000
2002
0000
3003
0001
2002
0000
,  // measure 48
3003
0000
0000
0000
;

//---------------dance-single - STANDARD----------------
#NOTES:
     dance-single:
     STANDARD:
     Medium:
     6:
     0.447,0.431,0.172,0.080,0.138:
0000
0000
0000
0000
,
0000
0000
0000
0000
,
0000
1001
0000
0000
0000
0000
0000
0000
,
0000
1001
0000
0000
0000
0000
0000
0000
,
0000
1001
0000
0000
0000
0000
0000
0000
,
0000
1001
0000
0000
0000
0000
0000
0000
,
1001
0000
0001
0100
0010
1000
0100
0000
,
1000
0010
0100
0001
0000
0010
1000
0000
,
1100
0000
1000
0010
0100
0001
0010
0000
,
1000
0001
0010
0100
0000
0100
1000
0000
,
0101
0000
1000
0100
0010
0001
0100
0000
,
0010
0100
0001
0010
0000
0001
0100
0000
,
0101
0000
0010
1000
0001
0100
0010
0000
,
0100
0001
0010
0100
1000
1000
0001
0000
,
1001
0000
1000
0100
1000
0010
1000
0000
,
0001
0100
1000
0100
0000
0001
0020
0000
,
0031
0000
1000
0100
0010
0100
1000
0000
,
0001
0100
1000
0100
0000
0010
2000
0000
,
3001
0000
0010
0100
0001
0100
1000
0000
,
1000
0100
0010
0001
0000
0010
0200
0000
,
0310
0000
0001
0100
0010
1000
0001
0000
,
0010
0100
1000
0010
0000
1000
0001
0000
,
1000
0010
1000
0010
0000
0010
0001
0010
,
0000
0010
1000
0010
0000
0010
0100
0010
,
0000
0100
1000
0100
0000
0100
0010
0100
,
0000
0100
0001
0100
1000
0100
0010
0100
,
0001
0010
0001
0100
0000
0001
1000
0100
,
0000
1000
0010
1000
0000
1000
0001
0100
,
0000
0010
0100
0010
0000
0001
0010
1000
,
1100
1001
1010
1001
,
0010
0000
0000
0100
0000
0000
0001
0000
0000
0000
0000
0000
0010
0000
0000
0000
0010
0000
0000
0000
0010
0000
0000
0000
,
0001
0000
0001
0000
0001
0000
1000
0000
1000
0000
1000
0000
,
1000
0100
0001
0000
1000
0100
0010
0000
,
0001
0100
1000
0000
0001
0100
0010
0000
,
0001
0000
0000
0100
0000
0000
0010
0000
0000
0000
0000
0000
1000
0000
0000
0000
1000
0000
0000
0000
1000
0000
0000
0000
,
0001
0000
0001
0000
0001
0000
0010
0000
0010
0000
0010
0000
,
1000
0100
0001
0000
0010
0100
0001
0000
,
1000
0100
0001
0000
0010
0100
1000
0000
,
0100
0000
0000
0001
0000
0000
0010
0000
0000
0000
0000
0000
1000
0000
0000
0000
1000
0000
0000
0000
1000
0000
0000
0000
,
0001
0000
0001
0000
0001
0000
0100
0000
0100
0000
0100
0000
,
0001
0100
1000
0000
0010
0100
0001
0000
,
1000
0100
0001
0000
0010
0100
1000
0000
,
0001
0000
0000
1000
0000
0000
0010
0000
0000
0000
0000
0000
0100
0000
0000
0000
0100
0000
0000
0000
0100
0000
0000
0000
,
0001
0000
0001
0000
0001
0000
1000
0000
1000
0000
1000
0000
,
0100
0001
0100
0000
0010
0100
0001
0000
,
0100
1000
0100
0000
0010
0100
1000
0100
,
0000
0001
2002
0000
3003
1000
2002
0000
,
3003
0000
0000
0000
;

//---------------dance-single - BEGINNER----------------
#NOTES:
     dance-single:
     BEGINNER:
     Beginner:
     1:
     0.147,0.188,0.069,0.092,0.000: // measure 1
0000
0000
0000
0000
,  // measure 2
0000
0000
0000
0000
,  // measure 3
0000
0000
0000
0000
,  // measure 4
0000
0000
0000
0000
,  // measure 5
0000
0000
0000
0000
,  // measure 6
0000
0000
0000
0000
,  // measure 7
1001
0000
1000
0000
,  // measure 8
0001
0000
1000
0000
,  // measure 9
0001
0000
0100
0000
,  // measure 10
1000
0000
0100
0000
,  // measure 11
0110
0000
0010
0000
,  // measure 12
0100
0000
0010
0000
,  // measure 13
0001
0000
0010
0000
,  // measure 14
1000
0000
0010
0000
,  // measure 15
1001
0000
0001
0000
,  // measure 16
1000
0000
0001
0000
,  // measure 17
1000
0000
0100
0000
,  // measure 18
0001
0000
0100
0000
,  // measure 19
0110
0000
0100
0000
,  // measure 20
0010
0000
0100
0000
,  // measure 21
1000
0000
0010
0000
,  // measure 22
0001
0000
0010
0000
,  // measure 23
1000
0000
1000
0000
,  // measure 24
0001
0000
0001
0000
,  // measure 25
1000
0000
1000
0000
,  // measure 26
0001
0000
0100
0000
,  // measure 27
0001
0000
0001
0000
,  // measure 28
1000
0000
1000
0000
,  // measure 29
0001
0000
0001
0000
,  // measure 30
0100
0100
0100
0100
,  // measure 31
0100
0000
0001
0000
,  // measure 32
0010
0000
0001
0000
,  // measure 33
0200
0000
0300
0000
,  // measure 34
2000
0000
3000
0000
,  // measure 35
0100
0000
1000
0000
,  // measure 36
0010
0000
1000
0000
,  // measure 37
0200
0000
0300
0000
,  // measure 38
0002
0000
0003
0000
,  // measure 39
0010
0000
1000
0000
,  // measure 40
0100
0000
1000
0000
,  // measure 41
0020
0000
0030
0000
,  // measure 42
0002
0000
0003
0000
,  // measure 43
0010
0000
0001
0000
,  // measure 44
0100
0000
0001
0000
,  // measure 45
0020
0000
0030
0000
,  // measure 46
2000
0000
3000
0000
,  // measure 47
0000
1001
0000
1001
;
