#TITLE:Sexy Chick;
#SUBTITLE:;
#ARTIST:David Guetta feat. Akon;
#TITLETRANSLIT:;
#SUBTITLETRANSLIT:;
#ARTISTTRANSLIT:;
#GENRE:;
#CREDIT:;
#MENUCOLOR:;
#BANNER:Sexy Chick.png;
#BACKGROUND:Sexy Chick-BG.png;
#LYRICSPATH:;
#CDTITLE:;
#MUSIC:Sexy Chick.mp3;
#OFFSET:-0.030;
#SAMPLESTART:73.860;
#SAMPLELENGTH:12.000;
#SELECTABLE:YES;
#LISTSORT:;
#DISPLAYBPM:130.000;
#BPMS:0.000=130.000;
#STOPS:;
#TICKCOUNT:0.000=2;
#BGCHANGES:;
#KEYSOUNDS:;
#ATTACKS:;

//---------------dance-single - BEGINNER----------------
#NOTES:
     dance-single:
     BEGINNER:
     Beginner:
     1:
     0.123,0.188,0.039,0.019,0.000:
0000
0000
0000
0000
,
0000
0000
0000
0000
,
0000
0000
0000
0000
,
0000
0000
0000
0000
,
0100
0000
0000
0000
,
0010
0000
0000
0000
,
1000
0000
0000
0000
,
0001
0000
0000
0000
,
1000
0000
0000
0000
,
0000
0000
1000
0000
,
0001
0000
0000
0000
,
0000
0000
0010
0000
,
0100
0000
0000
0000
,
0000
0000
0100
0000
,
0010
0000
0000
0000
,
0000
0000
0010
0000
,
2000
0000
3000
0000
,
1000
0000
1000
0000
,
0001
0000
0000
0000
,
1000
0000
0000
0000
,
0002
0000
0000
0000
,
0003
0000
0000
0000
,
0001
0000
0001
0000
,
1000
0000
1000
0000
,
0010
0000
1000
0000
,
0100
0000
0000
0000
,
0010
0000
0001
0000
,
0100
0000
0000
0000
,
0100
0000
0000
0000
,
0010
0000
0000
0000
,
0001
0000
0001
0000
,
1000
0000
1000
0000
,
0001
0000
0100
0000
,
1000
0000
0000
0000
,
0001
0000
0010
0000
,
1000
0000
0000
0000
,
0010
0000
0000
0000
,
0100
0000
0000
0000
,
0010
0000
0100
0000
,
0010
0000
0110
0000
,
1001
0000
1000
1000
,
0000
0000
1000
0000
,
0001
0001
0001
0001
,
0000
0000
0110
0000
,
0010
0010
0010
0010
,
0000
0000
0010
0000
,
0100
0100
0100
0100
,
0000
0000
1001
0000
,
1000
0000
1000
0000
,
0010
0000
0010
0000
,
0001
0000
0001
0000
,
0010
0000
0010
0000
,
0100
0000
0100
0000
,
1000
0000
1000
0000
,
0100
0000
0100
0000
,
0001
0001
0001
0001
;

//---------------dance-single - BASIC----------------
#NOTES:
     dance-single:
     BASIC:
     Easy:
     3:
     0.266,0.296,0.039,0.135,0.000: // measure 1
0000
0000
0000
0000
,  // measure 2
0000
0000
0000
0000
,  // measure 3
0000
0000
0000
0000
,  // measure 4
0000
0000
0000
0000
,  // measure 5
0001
1000
0100
0000
,  // measure 6
1000
0001
0010
0000
,  // measure 7
1000
0010
0100
0000
,  // measure 8
0001
0010
0100
0000
,  // measure 9
1000
0100
1000
0100
,  // measure 10
0001
0000
0100
0010
,  // measure 11
1000
0010
1000
0010
,  // measure 12
0001
0000
0010
0001
,  // measure 13
0100
0001
0100
0001
,  // measure 14
0010
0000
0100
1000
,  // measure 15
0001
0010
0001
0010
,  // measure 16
0000
0100
0000
0010
,  // measure 17
1000
2000
0000
3001
,  // measure 18
0000
0001
0100
0010
,  // measure 19
1000
0100
0010
0000
,  // measure 20
0001
0100
0010
0000
,  // measure 21
0001
0002
0000
1003
,  // measure 22
0000
1000
0100
1000
,  // measure 23
0010
1000
0100
0000
,  // measure 24
0010
0001
0100
0000
,  // measure 25
0001
0100
0010
1000
,  // measure 26
0002
0003
1000
0000
,  // measure 27
1000
0100
0010
0001
,  // measure 28
2000
3000
0100
0000
,  // measure 29
0010
0001
1000
0001
,  // measure 30
0100
1000
0001
1000
,  // measure 31
0020
0030
1000
0000
,  // measure 32
0200
0300
0001
1000
,  // measure 33
0001
0100
0010
0100
,  // measure 34
0002
0003
1000
0001
,  // measure 35
0010
0100
1000
0010
,  // measure 36
2000
3000
0010
1000
,  // measure 37
0001
0100
0010
1000
,  // measure 38
0001
0010
0100
1000
,  // measure 39
0020
0030
0100
0000
,  // measure 40
0200
0300
0110
1001
,  // measure 41
0110
0010
1000
1000
,  // measure 42
0001
0100
0010
1000
,  // measure 43
0100
1000
0001
0001
,  // measure 44
0100
0000
0020
0030
,  // measure 45
0001
1000
0001
0001
,  // measure 46
0010
0100
1000
0100
,  // measure 47
0010
0001
0100
0100
,  // measure 48
0020
0030
2002
3003
,  // measure 49
1000
1000
0001
0001
,  // measure 50
1000
0010
1000
0100
,  // measure 51
0010
0010
0001
0001
,  // measure 52
1000
0100
1000
0001
,  // measure 53
0100
1000
0100
0001
,  // measure 54
0010
0100
1000
0001
,  // measure 55
0010
1000
0010
0001
,  // measure 56
0100
0010
1000
0001
;

//---------------dance-single - DIFFICULT----------------
#NOTES:
     dance-single:
     DIFFICULT:
     Medium:
     5:
     0.366,0.376,0.145,0.212,0.000:
0000
0000
0000
0000
,
0000
0000
0000
0000
,
0000
0000
0000
0000
,
0000
0000
0000
0000
,
0001
0100
0010
1000
,
0001
0010
0100
1000
,
0001
0100
0001
1000
,
0001
1000
0010
0100
,
0010
0010
0000
0000
1000
0000
0100
0000
,
0001
0000
1000
0010
1000
0000
0100
0000
,
1000
1000
0000
0000
1000
0000
0100
0000
,
0001
0102
1003
2100
,
3001
0001
0000
0000
1000
0000
0100
0000
,
0010
0000
0001
0100
0010
0000
0100
0000
,
0001
0001
0000
0000
1000
0000
0100
0000
,
0000
0011
0000
1100
,
0010
0020
1000
1030
,
0100
0000
1000
0100
1000
0000
0001
0100
,
0001
0100
0010
1000
,
0001
0000
0100
0000
0010
1000
0100
1000
,
0010
0020
0001
0031
,
1000
0000
1000
0000
0100
1000
0001
1000
,
0010
0100
0001
1000
,
0200
0000
0300
0000
0010
0001
0100
0001
,
0100
0100
1000
1000
,
0020
0000
0030
0000
1000
0100
0001
0100
,
1000
1000
0010
0010
,
0002
0000
0003
0000
0010
0100
0001
0100
,
0002
0100
1000
0103
,
1000
0100
0001
0100
,
0010
0100
1000
0001
,
0100
0000
0010
0000
1000
0001
0100
0010
,
1000
1010
0001
0100
,
2000
0000
3000
0000
0100
1000
0010
1000
,
0100
1100
0001
0010
,
0002
0000
0003
0000
0001
0010
0100
1000
,
0002
0010
1000
0013
,
1000
0010
0001
0010
,
1000
0100
0001
0010
,
0110
1001
0110
0110
,
1001
0000
0100
0000
1000
0100
1000
0000
,
0002
0000
1003
0000
0001
0010
0100
0000
,
1000
0000
0001
0000
1000
0010
1000
0000
,
0200
0300
0110
1001
,
0010
0000
0100
0000
0001
0010
0001
0000
,
2000
0000
3100
0000
1000
0010
1000
0000
,
0010
0000
1000
0000
0001
0100
0001
0000
,
0100
0010
0110
1001
,
0002
0103
2000
3100
,
0010
0000
0001
0000
1000
0000
0100
1000
,
0020
1030
0200
1300
,
0001
0000
1000
0000
0010
0000
1000
0100
,
0002
0103
0020
1030
,
0010
0000
0100
0000
0001
0000
0010
0100
,
2000
3100
0020
0031
,
0010
0100
1000
0001
;

//---------------dance-single - EXPERT----------------
#NOTES:
     dance-single:
     EXPERT:
     Hard:
     7:
     0.500,0.484,0.308,0.183,0.024:
0000
0000
0000
0000
,
0000
0000
0000
0000
,
0000
0000
0000
0000
,
0000
0000
0000
0000
,
0001
0000
0100
1000
0010
0100
0001
0000
,
0100
0000
0000
0010
0100
0000
0001
0000
0010
0000
0001
0000
1000
0000
0000
0000
,
0010
0000
0100
0010
0100
0001
0010
0000
,
0001
0000
0000
1000
0100
0000
0001
0000
0010
0000
0001
0000
0010
0000
0100
0000
,
1000
0100
1000
0100
0001
0100
0001
0100
,
1000
0000
0000
0100
1000
0000
0001
0000
0010
0000
0001
0000
0100
0000
0010
0000
,
1000
0010
1000
0010
0001
0010
0001
0010
,
1000
0000
0001
0000
0100
0010
1000
0001
,
1000
0100
1000
0010
0100
0001
0010
0001
,
0100
0000
0000
0010
0100
0000
0001
0000
0010
0000
0100
0000
1000
0000
0001
0000
,
1000
0010
1000
0001
1000
0100
1000
0001
,
0010
0000
1000
0000
0100
0010
0001
0100
,
0020
1000
1000
1030
,
0100
0000
0000
1000
0001
0000
1000
0000
0100
0000
0010
0000
0001
0000
0100
0000
,
0001
0100
0001
0100
0001
0010
0001
0010
,
0001
1000
0001
1000
0010
1000
0001
0100
,
0002
0100
1000
0103
,
0010
0000
1000
0001
0100
0010
1000
0001
,
0100
0001
0100
0001
0010
0001
0010
0001
,
1000
0100
1000
0001
0010
0001
1000
0001
,
0100
0000
0001
0100
0010
1000
0000
0010
,
0100
0000
0001
0000
1000
0100
0010
0001
,
0100
0000
0010
1000
0010
0100
0001
0000
,
2000
0000
3000
0000
0001
0100
0001
1000
,
0020
1000
0100
0031
,
0100
0001
0100
0001
0100
1000
0100
1000
,
0200
0301
2000
3010
,
2000
0000
3100
0000
0010
0001
1000
0100
,
1000
0000
0101
0000
0010
1000
0001
0100
,
0010
0000
1010
0000
0010
0100
0001
0010
,
0100
0000
1001
0000
1000
0100
0010
0001
,
0100
0000
1001
0000
0001
0010
0100
1000
,
0002
0010
1000
0103
,
1000
0100
1000
0100
0010
0001
0010
0001
,
1000
1000
0001
0001
,
0110
1001
0110
1001
,
0101
0000
0100
1000
0001
0010
0001
0000
,
1100
0000
0001
0010
0100
1000
0001
0000
,
1010
0000
0100
0010
1000
0001
0100
0000
,
0010
0000
0100
0110
0000
1001
0000
0000
,
0110
0000
0010
0100
1000
0100
0010
0000
,
0110
0000
0100
0010
0001
0010
0100
0000
,
1001
0000
0001
0010
0100
1000
0001
0000
,
1000
0000
0001
1001
0000
0110
0000
0000
,
1001
0000
0000
0000
0100
0000
0000
0000
1002
0000
0000
0003
0100
0000
0000
0000
,
0120
0000
1030
0000
0120
0000
1030
0100
,
2100
3001
0102
1003
,
2010
0000
3100
0000
0011
0000
0001
1000
,
0120
0031
0120
1030
,
0210
0000
0301
0000
1001
0000
0100
0010
,
0012
0103
2010
3100
,
0010
0000
0001
0100
0010
1000
0100
0000
;
