#TITLE:Scream;
#SUBTITLE:;
#ARTIST:Michael & Janet Jackson;
#TITLETRANSLIT:;
#SUBTITLETRANSLIT:;
#ARTISTTRANSLIT:;
#GENRE:;
#CREDIT:;
#MENUCOLOR:;
#BANNER:;
#BACKGROUND:;
#LYRICSPATH:;
#CDTITLE:;
#MUSIC:Scream.mp3;
#OFFSET:-4.381;
#SAMPLESTART:71.962;
#SAMPLELENGTH:12.000;
#SELECTABLE:YES;
#LISTSORT:;
#DISPLAYBPM:107.000;
#BPMS:0.000=106.500;
#STOPS:16.000=1.690
;
#TICKCOUNT:0.000=2;
#BGCHANGES:-99999.000=-nosongbg-=1.000=0=0=0,
-7.750=Scream.avi=1.000=1=1=0,
99999=-nosongbg-=1.000=0=0=0 // don't automatically add -songbackground-
;
#KEYSOUNDS:;
#ATTACKS:;

//---------------dance-single - BASIC----------------
#NOTES:
     dance-single:
     BASIC:
     Easy:
     2:
     0.147,0.188,0.010,0.020,0.000: // measure 1
1001
0000
0001
0000
,  // measure 2
0010
0000
1000
0000
,  // measure 3
1000
0000
0100
0000
,  // measure 4
0010
0000
0001
0000
,  // measure 5
0001
0020
0000
0000
,  // measure 6
0000
0030
1000
0100
,  // measure 7
0000
0000
0100
0001
,  // measure 8
0000
0000
0010
1000
,  // measure 9
0000
0000
0001
0100
,  // measure 10
0000
0000
0010
0001
,  // measure 11
0000
0000
0100
0010
,  // measure 12
0000
0000
0001
1000
,  // measure 13
0000
0000
0001
1000
,  // measure 14
0000
0000
0001
0010
,  // measure 15
0000
0000
1000
0100
,  // measure 16
0000
0000
0010
0001
,  // measure 17
0000
1000
1000
0001
,  // measure 18
0001
0000
1000
0010
,  // measure 19
0000
0000
0001
0010
,  // measure 20
0000
0000
0100
1000
,  // measure 21
0000
0001
0010
0001
,  // measure 22
0100
1000
0000
0001
,  // measure 23
0000
0100
0000
0010
,  // measure 24
0000
1000
0000
0100
,  // measure 25
0000
0010
0000
0001
,  // measure 26
0000
0010
0000
1000
,  // measure 27
0000
0001
0000
0100
,  // measure 28
0000
1000
0100
0001
,  // measure 29
0100
1000
1000
1000
,  // measure 30
0010
0000
0001
0100
,  // measure 31
0001
0000
0001
0100
,  // measure 32
1000
0000
1000
0100
,  // measure 33
1000
0010
0010
0001
,  // measure 34
0001
0000
0010
0001
,  // measure 35
0010
0000
0001
1000
,  // measure 36
0001
0000
0001
0100
,  // measure 37
0001
0010
0010
1000
,  // measure 38
1000
0001
0001
1000
,  // measure 39
1000
0001
0001
1000
,  // measure 40
1000
0002
0000
0000
,  // measure 41
0000
0000
0000
0000
,  // measure 42
0000
0000
0000
0000
,  // measure 43
0000
0003
0000
0000
;

//---------------dance-single - STANDARD----------------
#NOTES:
     dance-single:
     STANDARD:
     Medium:
     5:
     0.319,0.313,0.208,0.168,0.000:
1001
0000
0001
0100
1000
0000
0100
0000
,
0001
0000
1000
0100
0001
0000
0100
0000
,
1000
0000
0001
0100
0010
0000
0100
0000
,
0001
0001
1000
1000
,
0001
2000
0000
0000
,
0000
0000
3001
0000
1000
0100
1000
0000
,
0010
0000
1000
0000
0100
0001
0020
0000
,
0031
0000
0100
0000
0001
1000
0001
0000
,
0100
0000
1000
0000
0001
0100
2000
0000
,
3001
0000
0110
0000
0001
0010
0001
0000
,
0100
0000
0010
0000
0010
1000
0200
0000
,
1300
0000
0001
0000
0100
0010
0100
0000
,
0001
0000
1000
0000
0010
0100
0020
0000
,
0031
0000
1001
0000
0010
0010
1000
0000
,
0100
0000
0001
0000
1000
1000
0200
0000
,
1300
0000
0001
0000
0010
0010
0001
0000
,
0100
0000
0001
0100
0001
0000
1000
0100
,
1000
0000
0110
0000
0001
0010
1000
0000
,
0010
0000
0100
0000
1000
0100
0002
0000
,
0103
0000
0010
0000
0001
0100
1000
0000
,
0100
0000
0001
0010
0001
0000
1000
0010
,
1000
0110
0001
0010
,
1000
0000
1000
0100
0001
0000
0001
0000
,
0100
1000
0010
0000
1000
0000
0100
0000
,
0001
0000
0010
0001
0100
0000
0010
1000
,
0100
0110
0001
0010
,
0001
0000
1000
0010
0001
0000
2000
0000
,
3100
0000
1000
0100
0010
0000
0001
0000
,
1000
1001
1001
0110
,
0110
0000
0002
0000
0013
0000
1000
0100
,
1000
0000
0002
0000
0013
0000
0001
0100
,
0001
0000
2000
0000
3010
0000
1000
0100
,
1000
1010
0010
0101
,
0100
0000
1002
0000
0013
0000
0010
0001
,
0100
0000
2000
0000
3010
0000
1000
0010
,
0100
0000
0002
0000
0013
0000
0010
0100
,
1000
0101
0100
1010
,
0010
1100
1100
0101
,
0101
1002
1000
1000
,
1003
2002
0000
0000
,
0000
0000
0000
0000
,
0000
0000
0000
0000
,
0000
3003
0000
0000
;

//---------------dance-single - HEAVY----------------
#NOTES:
     dance-single:
     HEAVY:
     Hard:
     6:
     0.412,0.397,0.217,0.237,0.084:
1001
0000
0000
0000
0001
0000
0100
0000
0010
0000
1000
0000
0000
1000
0000
0000
,
0010
0000
0000
0000
1000
0000
0100
0000
0010
0000
0001
0000
0000
0001
0000
0000
,
0100
0000
0000
0000
1000
0000
0100
0000
0001
0000
0010
0000
0000
0010
0000
0000
,
0100
0010
0001
1000
,
0100
0020
0000
0000
,
0030
0000
0000
0000
0110
0000
0000
0000
1000
0100
1000
0000
0001
0000
0010
0000
,
0001
0000
0100
0000
0010
0000
0000
0000
1000
0001
1000
0000
0020
0000
0000
0000
,
0130
0000
0001
0000
0010
0000
0000
0000
0100
0010
0100
0000
1000
0000
0001
0000
,
0100
0000
0001
0000
1000
0000
0000
0000
0010
0100
0010
0000
2000
0000
0000
0000
,
3001
0000
0000
0000
0110
0000
0000
0000
0001
1000
0001
0000
1000
0000
0100
0000
,
1000
0000
0010
0000
0100
0000
0000
0000
0001
1000
0001
0000
0020
0000
0000
0000
,
0031
0000
0000
0000
0100
0000
0000
0000
0001
0100
0001
0000
1000
0000
0010
0000
,
0100
0000
0001
0000
0010
0000
0000
0000
0100
0010
0100
0000
1000
0000
0000
0000
,
0001
0000
0001
0000
1001
0000
0000
0000
0001
0100
0001
0000
1000
0000
0010
0000
,
1000
0000
0100
0000
1000
0000
0000
0000
0010
0100
0010
0000
2000
0000
0000
0000
,
3001
0000
0000
0000
0010
0000
0000
0000
1000
0100
1000
0000
0010
0000
0100
0000
,
0001
0000
2000
0000
3010
1000
0001
0010
,
0001
0000
0100
0000
0010
0000
0000
0000
1000
0001
1000
0000
0001
0000
0100
0000
,
0010
0000
1000
0000
0100
0000
0000
0000
0010
0001
0010
0000
0002
0000
0000
0000
,
0103
0000
0000
0000
1000
0000
0000
0000
0100
0010
0100
0000
1000
0000
0010
0000
,
0100
0000
0010
1000
0010
0010
0001
0010
,
0100
0000
0001
0010
0100
1000
0001
0010
,
0100
1000
0001
0100
0002
0000
1003
0100
,
2000
0000
3001
0010
0100
1000
0010
0100
,
0010
1000
0001
0100
0020
0000
1030
0100
,
0020
0000
0031
0010
0001
0100
0010
0100
,
0001
1000
0001
0100
2000
0000
3010
0100
,
0002
0000
1003
0100
0010
0100
1000
0001
,
0100
0010
0101
0000
0101
0000
1010
0000
,
1010
0000
0102
0000
0013
0000
1000
0100
,
0010
0001
0200
0000
0310
0000
0100
0010
,
1000
0001
0020
0000
0130
0000
1000
0001
,
0100
0001
1100
0000
1100
0000
0101
0000
,
0101
1000
0100
0000
0010
0000
0001
1000
,
0010
0001
0200
0000
0301
0000
0000
1000
,
0010
1000
0200
0000
0310
0000
0010
0100
,
1000
0001
0011
0000
0011
0000
1010
0000
,
1010
0001
0102
0000
1003
0000
2100
0000
,
3001
0120
1030
0120
,
0031
0220
0000
0000
,
0000
0000
0000
0000
,
0000
0000
0000
0000
,
0000
0330
0000
0000
;

//---------------dance-single - BEGINNER----------------
#NOTES:
     dance-single:
     BEGINNER:
     Beginner:
     1:
     0.124,0.136,0.049,0.000,0.000: // measure 1
0001
0000
0001
0000
,  // measure 2
0010
0000
0010
0000
,  // measure 3
1000
0000
1000
0000
,  // measure 4
0100
0000
0100
0000
,  // measure 5
0010
0000
0000
0000
,  // measure 6
0000
0000
1000
1000
,  // measure 7
0000
0000
0100
0100
,  // measure 8
0000
0000
0010
0010
,  // measure 9
0000
0000
0001
0001
,  // measure 10
0000
0000
0010
0010
,  // measure 11
0000
0000
0100
0100
,  // measure 12
0000
0000
1000
1000
,  // measure 13
0000
0000
0001
0001
,  // measure 14
0000
0000
0010
0010
,  // measure 15
0000
0000
0100
0100
,  // measure 16
0000
0000
0001
0001
,  // measure 17
0000
1000
0000
0001
,  // measure 18
0000
0000
1000
1000
,  // measure 19
0000
0000
0001
0001
,  // measure 20
0000
0000
0100
0100
,  // measure 21
0000
0010
0000
0100
,  // measure 22
0000
1000
0000
0001
,  // measure 23
0000
0100
0000
0010
,  // measure 24
0000
1000
0000
0100
,  // measure 25
0000
0010
0000
0001
,  // measure 26
0000
0010
0000
1000
,  // measure 27
0000
0001
0000
0100
,  // measure 28
0000
1000
0000
0001
,  // measure 29
0000
1000
1000
1000
,  // measure 30
1000
0000
0001
0000
,  // measure 31
0001
0000
0001
0000
,  // measure 32
0001
0000
1000
1000
,  // measure 33
0000
0010
0010
0010
,  // measure 34
0010
0000
0001
0000
,  // measure 35
0001
0000
1000
0000
,  // measure 36
1000
0000
0100
0100
,  // measure 37
0000
0010
0010
0010
,  // measure 38
0000
1001
0000
1001
,  // measure 39
0000
0110
0000
0110
,  // measure 40
0000
1001
0000
0000
;
