#TITLE:SUPER STAR(X-Special);
#SUBTITLE:;
#ARTIST:D.J.RICH feat.Tail Bros.;
#TITLETRANSLIT:;
#SUBTITLETRANSLIT:;
#ARTISTTRANSLIT:;
#GENRE:;
#CREDIT:;
#MENUCOLOR:;
#BANNER:SUPER STAR(X-Special).png;
#BACKGROUND:SUPER STAR(X-Special)-bg.png;
#LYRICSPATH:;
#CDTITLE:./CDTITLES/DANCE DANCE REVOLUTION SOLO.PNG;
#MUSIC:SUPER STAR(X-Special).mp3;
#OFFSET:-0.060;
#SAMPLESTART:52.070;
#SAMPLELENGTH:15.000;
#SELECTABLE:YES;
#LISTSORT:;
#DISPLAYBPM:128.000;
#BPMS:0.000=128.020;
#STOPS:;
#TICKCOUNT:0.000=2;
#BGCHANGES:15.750=Jazz1.avi=0.750=1=0=1,
23.750=Piano3.avi=1.000=0=0=1,
31.750=Wheel6.avi=1.000=0=0=1,
39.750=Fan1.avi=1.000=0=0=1,
47.750=Jazz1.avi=0.750=0=1=1,
55.750=Piano3.avi=1.000=0=1=1,
63.750=Text1F.png=1.000=0=0=1,
64.250=Text2F.png=1.000=0=0=1,
64.750=Text3F.png=1.000=0=0=1,
65.250=Text4F.png=1.000=0=0=1,
65.750=Text1F.png=1.000=0=0=1,
66.250=Text12.avi=1.000=0=1=1,
67.750=Text5F.png=1.000=0=0=1,
68.250=Text6F.png=1.000=0=0=1,
68.750=Text7F.png=1.000=0=0=1,
69.250=Text8F.png=1.000=0=0=1,
69.750=Text5F.png=1.000=0=0=1,
70.250=Text14.avi=1.000=0=1=1,
71.750=Text1F.png=1.000=0=0=1,
72.250=Text2F.png=1.000=0=0=1,
72.750=Text3F.png=1.000=0=0=1,
73.250=Text4F.png=1.000=0=0=1,
73.750=Text1F.png=1.000=0=0=1,
74.250=Text12.avi=1.000=0=1=1,
75.750=Text5F.png=1.000=0=0=1,
76.250=Text6F.png=1.000=0=0=1,
76.750=Text7F.png=1.000=0=0=1,
77.250=Text8F.png=1.000=0=0=1,
77.750=Text5F.png=1.000=0=0=1,
78.250=Text14.avi=1.000=0=1=1,
79.750=Jazz1.avi=0.750=0=1=1,
87.750=Piano3.avi=1.000=0=1=1,
95.750=Wheel6.avi=1.000=0=1=1,
103.750=Fan1.avi=1.000=0=1=1,
111.750=Jazz1.avi=0.750=0=1=1,
119.750=Piano3.avi=1.000=0=1=1,
127.750=Text1F.png=1.000=0=0=1,
128.250=Text2F.png=1.000=0=0=1,
128.750=Text3F.png=1.000=0=0=1,
129.250=Text4F.png=1.000=0=0=1,
129.750=Text1F.png=1.000=0=0=1,
130.250=Text12.avi=1.000=0=1=1,
131.750=Text5F.png=1.000=0=0=1,
132.250=Text6F.png=1.000=0=0=1,
132.750=Text7F.png=1.000=0=0=1,
133.250=Text8F.png=1.000=0=0=1,
133.750=Text5F.png=1.000=0=0=1,
134.250=Text14.avi=1.000=0=1=1,
135.750=Text1F.png=1.000=0=0=1,
136.250=Text2F.png=1.000=0=0=1,
136.750=Text3F.png=1.000=0=0=1,
137.250=Text4F.png=1.000=0=0=1,
137.750=Text1F.png=1.000=0=0=1,
138.250=Text12.avi=1.000=0=1=1,
139.750=Text5F.png=1.000=0=0=1,
140.250=Text6F.png=1.000=0=0=1,
140.750=Text7F.png=1.000=0=0=1,
141.250=Text8F.png=1.000=0=0=1,
141.750=Text5F.png=1.000=0=0=1,
142.250=Text14.avi=1.000=0=1=1,
143.750=Jazz1.avi=0.750=0=1=1,
151.750=Piano3.avi=1.000=0=1=1,
159.750=Wheel6.avi=1.000=0=1=1,
167.750=Fan1.avi=1.000=0=1=1,
175.750=SUPER STAR-bg.png=1.000=0=0=1;
#KEYSOUNDS:;
#ATTACKS:;

//---------------dance-single - X-SPECIAL----------------
#NOTES:
     dance-single:
     X-SPECIAL:
     Edit:
     14:
     0.663,0.759,0.571,0.155,0.381: // measure 1
0000
0000
0000
0000
,  // measure 2
0000
0000
0000
0000
,  // measure 3
0000
0000
0000
0000
,  // measure 4
0000
0000
0000
0000
,  // measure 5
0001
0000
0100
0000
0010
0000
1000
0010
0100
0000
0010
0000
1000
0000
0000
0000
,  // measure 6
1000
0000
0100
0000
0010
0000
0001
0000
1000
0100
1000
0100
0001
0100
0001
0100
,  // measure 7
1000
0100
1100
0000
0001
0100
0101
0000
,  // measure 8
0010
1000
0010
1000
0010
0000
0100
0001
0100
0001
0100
0000
0010
0100
0010
0100
,  // measure 9
0010
1000
0200
0000
0310
0001
1000
MMMM
,  // measure 10
0001
0100
0020
0000
1030
0100
0001
MMMM
,  // measure 11
0001
0010
2000
0000
3010
0001
0100
MMMM
,  // measure 12
0110
0110
1000
0001
0100
0010
1000
MMMM
,  // measure 13
1000
0000
0010
1000
0010
0000
0100
0000
0001
0000
0010
0000
0100
0000
0000
0000
,  // measure 14
1000
0000
0001
0100
0010
0000
1000
0000
0010
0000
0100
0000
0001
0000
0000
0000
,  // measure 15
1000
0000
0001
0100
1000
0000
0100
0000
0010
0000
1000
0000
0100
0000
0000
0000
,  // measure 16
2002
0000
3003
0100
0010
0001
1000
0000
,  // measure 17
1001
0101
1001
0101
0110
1001
0000
0000
,  // measure 18
0000
1010
0101
1010
0101
0110
0000
0000
,  // measure 19
1001
0110
1001
0110
0101
1100
0000
0000
,  // measure 20
1010
0101
1010
0101
1001
1001
0110
0000
,  // measure 21
0010
0000
1000
0010
1000
0000
0100
0000
0010
0000
0001
0000
1000
0000
0100
0000
,  // measure 22
0001
0100
0001
0100
0010
0000
1000
0000
0010
1000
0010
0100
0010
0000
1000
0000
,  // measure 23
0100
0010
0001
0100
0001
0000
1000
0000
0001
0100
0010
1000
0100
0000
1000
0000
,  // measure 24
0001
1000
0001
1000
0100
0000
0010
0100
0010
0100
1000
0000
0001
1000
0001
1000
,  // measure 25
0001
0100
0020
0000
1030
0100
0010
MMMM
,  // measure 26
0001
1000
0020
0000
1030
0010
0001
MMMM
,  // measure 27
0010
0100
0002
0000
0013
0100
1000
MMMM
,  // measure 28
0100
1000
0020
0000
1030
0010
0100
MMMM
,  // measure 29
0001
0000
0100
0010
1000
0000
0010
0000
0100
0000
0001
0000
0010
0000
0000
0000
,  // measure 30
1000
0000
0100
1000
0001
0000
0100
0000
0010
0000
1000
0000
0100
0000
0000
0000
,  // measure 31
0010
0000
0001
0100
0010
0000
1000
0000
0010
0000
0001
0000
0100
0000
0000
0000
,  // measure 32
1000
0100
1000
0100
1000
0000
0001
0100
0001
0100
0001
0000
0010
0000
1000
0000
,  // measure 33
0000
1100
1010
1100
0101
0011
2002
0000
,  // measure 34
3003
0101
0000
0011
0101
0110
2002
0000
,  // measure 35
3003
0110
0101
1100
0101
0110
1010
0000
,  // measure 36
0001
1000
0001
1000
0001
1000
0001
1000
0001
1000
0001
1000
0001
1000
0001
1000
,  // measure 37
0001
0000
0100
0000
0010
1000
0000
0010
0000
0000
0100
0000
0010
0000
1000
0000
,  // measure 38
0100
0000
0010
0000
0001
0010
0000
0100
0000
0000
1000
0000
0100
0000
0010
0000
,  // measure 39
0001
0000
1000
0000
0010
0100
0000
0010
0000
0000
1000
0000
0100
0000
0010
0000
,  // measure 40
1001
0000
0100
0000
0010
1000
0000
0010
0000
0000
0100
0000
0001
0000
0100
0000
,  // measure 41
1000
0000
0100
0000
0001
0100
0000
0010
0000
0000
1000
0000
0010
0000
0101
0000
,  // measure 42
0010
0000
1000
0000
0100
0010
0000
0001
0000
0000
0010
0000
1000
0000
0100
0000
,  // measure 43
0001
0000
0100
0000
0010
1000
0000
0100
0000
0000
1000
0000
0010
0000
0100
0000
,  // measure 44
0001
0100
0001
0100
0001
0000
1000
0010
1000
0010
1000
0000
0010
0100
0001
0100
,  // measure 45
0010
0000
0000
0000
;
