#TITLE:Right Now (Na Na Na);
#SUBTITLE:;
#ARTIST:Akon;
#TITLETRANSLIT:;
#SUBTITLETRANSLIT:;
#ARTISTTRANSLIT:;
#GENRE:;
#CREDIT:;
#MENUCOLOR:;
#BANNER:Right Now (Na Na Na).png;
#BACKGROUND:Right Now (Na Na Na)-BG.png;
#LYRICSPATH:;
#CDTITLE:;
#MUSIC:Right Now (Na Na Na).mp3;
#OFFSET:-1.681;
#SAMPLESTART:28.411;
#SAMPLELENGTH:12.000;
#SELECTABLE:YES;
#LISTSORT:;
#DISPLAYBPM:69.000:138.000;
#BPMS:0.000=68.886,16.000=138.030;
#STOPS:;
#TICKCOUNT:0.000=2;
#BGCHANGES:;
#KEYSOUNDS:;
#ATTACKS:;

//---------------dance-single - HEAVY----------------
#NOTES:
     dance-single:
     HEAVY:
     Hard:
     8:
     0.552,0.495,0.118,0.088,0.216:
0000
0000
0000
0000
,
0000
0000
0000
0000
0000
0000
0000
0000
0000
0000
0000
0000
1000
0100
0010
0001
,
0100
0000
0010
2000
0000
0000
3001
0200
0000
0000
0000
0000
0000
0000
0000
0301
,
0020
0000
0230
0000
,
0310
0000
0010
1000
0010
0000
0010
0000
,
0010
0001
0010
0000
0010
0100
0010
0000
,
0100
0000
0100
1000
0100
0000
0100
0000
,
0100
0001
0100
0000
0100
0010
1000
0001
,
0010
0000
0010
0001
0100
0000
0010
1000
,
0100
0000
1000
0000
0001
0100
0001
0000
,
1000
0000
1000
0100
0010
0000
0001
0100
,
0020
0000
0000
1030
0001
0001
0100
0000
,
1000
0000
0001
0000
1000
0100
1000
0000
0001
0000
0010
0000
0100
0000
0000
0000
,
1000
0100
1000
0000
1000
0000
0010
0000
0001
0000
0000
0000
0001
0100
0001
0000
,
1000
0000
0001
0000
0100
0010
0100
0000
0010
0000
1000
0000
0100
0000
0000
0000
,
0100
0001
0100
0000
0010
0000
1000
0000
0010
0000
0000
0000
1000
0100
1000
0000
,
0100
0000
1000
0000
0001
1000
0001
0000
0010
0000
0100
0000
0010
0000
0000
0000
,
0001
0100
0001
0000
1000
0000
0001
0000
0010
0000
0000
0000
1000
0100
1000
0000
,
0001
0000
1000
0000
0010
0100
0010
0000
1000
0000
0100
0000
0001
0000
0000
0000
,
0100
1000
0100
0000
1000
0000
0010
0000
0001
0000
0000
0000
0001
0100
0001
0000
,
1001
0000
1001
0000
0001
0100
0001
0000
,
1000
0100
0010
0001
0100
0010
1000
0000
,
0110
0000
0110
0000
1000
0100
1000
0000
,
0001
0100
0001
1000
0010
0010
1000
0100
,
1100
0000
0011
1100
1000
0100
0010
0000
,
0001
0010
0100
1000
0010
0010
1000
0100
,
1100
0000
0101
1000
0100
0001
0100
0000
,
1100
0000
0001
0100
1000
0100
0001
0000
,
0010
0000
0001
0000
0100
0001
0100
0000
0001
0000
1000
0000
0100
0000
0000
0000
,
0001
0100
0010
0100
1000
0100
0010
0000
,
1000
0000
0001
0000
1000
0100
1000
0000
0100
0000
0010
0000
0001
0000
0000
0000
,
0010
1000
0010
0100
0010
0001
0010
0100
,
0010
0000
1000
0000
0001
0100
0001
0000
1000
0000
0100
0000
0010
0000
0000
0000
,
0010
0001
0100
0100
0010
1000
0100
0100
,
1000
0000
0001
0000
1000
0100
1000
0000
0001
0000
0010
0000
1000
0000
0000
0000
,
0220
0000
0330
1000
0010
0100
0001
0000
,
1000
0000
0001
0000
1000
0100
1000
0000
0100
0000
0010
0000
0100
0000
0000
0000
,
1000
0100
0010
0000
0100
0000
1000
0000
0001
0000
0000
0000
0001
0100
0010
0000
,
0100
0000
0001
0000
0010
0100
1000
0000
0010
0000
1000
0000
0100
0000
0000
0000
,
1000
0001
0100
0000
0001
0000
0100
0000
0010
0000
0000
0000
0001
1000
0100
0000
,
1000
0000
0100
0000
0010
0100
1000
0000
0001
0000
0010
0000
0001
0000
0000
0000
,
0100
0010
1000
0000
0010
0000
0100
0000
0001
0000
0000
0000
0001
0100
0010
0000
,
1000
0000
0100
0000
0010
0001
0010
0000
0001
0000
0100
0000
0010
0000
0000
0000
,
1000
0000
0100
0000
1000
0001
0100
0000
0001
0000
0000
0000
1000
0001
0100
0000
,
0010
0000
0100
0000
0010
1000
0010
0000
1000
0000
0100
0000
0001
0000
0000
0000
,
0001
0100
0001
0000
0010
0000
1000
0000
0100
0000
0000
0000
1000
0100
1000
0000
,
0010
0000
0001
0000
0100
0001
0100
0000
0001
0000
1000
0000
0100
0000
0000
0000
,
0001
0100
1000
0000
0100
0000
0001
0000
0010
0000
0000
0000
0001
0100
1000
0000
,
0100
0000
0010
0000
1000
0010
0100
0000
0010
0000
0100
0000
0001
0000
0000
0000
,
1000
0100
0010
0000
0001
0000
1000
0000
0001
0000
0000
0000
0001
0100
0010
0000
,
1000
0000
0010
0000
0100
0001
0100
0000
0010
0000
1000
0000
0100
0000
0000
0000
,
1000
0001
1000
0000
1000
0000
0100
0000
0010
0000
0001
0000
0010
0000
0000
0000
,
2200
0000
0000
0000
,
3300
0000
0000
0000
;

//---------------dance-single - LIGHT----------------
#NOTES:
     dance-single:
     LIGHT:
     Easy:
     4:
     0.317,0.313,0.246,0.079,0.000: // measure 1
0000
0000
0000
0000
,  // measure 2
0000
0000
0000
0000
,  // measure 3
1000
0001
1000
0000
,  // measure 4
0010
0000
0100
0000
,  // measure 5
0001
0000
0000
0001
0000
0000
0001
0000
,  // measure 6
0000
0001
0000
0000
0001
0000
0100
0000
,  // measure 7
1000
0000
0000
1000
0000
0000
1000
0000
,  // measure 8
0000
1000
0000
0000
1000
0000
0100
0000
,  // measure 9
0010
0000
0000
0010
0000
0000
0010
0000
,  // measure 10
0000
0010
0000
0000
0010
0000
0001
0000
,  // measure 11
0100
0000
0000
0100
0000
0000
0100
0000
,  // measure 12
0020
0030
1000
0001
,  // measure 13
1000
1100
0100
1100
,  // measure 14
1000
0001
0010
0001
,  // measure 15
0100
0101
0001
0101
,  // measure 16
0100
0001
0100
0010
,  // measure 17
1000
0110
1000
0110
,  // measure 18
0001
0010
0100
1000
,  // measure 19
0010
1100
0010
0101
,  // measure 20
0020
0000
0030
0100
,  // measure 21
0010
0000
0010
0000
1000
0100
1000
0000
,  // measure 22
0001
1000
0010
1000
,  // measure 23
0001
0000
0001
0000
0100
0001
0100
0000
,  // measure 24
0100
0010
1000
0010
,  // measure 25
0100
0000
0100
0000
0010
0100
0010
0000
,  // measure 26
1000
0001
0010
0100
,  // measure 27
2000
0000
3000
0000
0001
1000
0001
0000
,  // measure 28
0002
0000
0003
0000
1000
0001
1000
0000
,  // measure 29
0010
0000
1000
0000
0010
0100
0010
0000
,  // measure 30
1000
0100
0100
1000
,  // measure 31
0001
0000
1000
0000
0001
0010
0001
0000
,  // measure 32
0100
0010
0010
0100
,  // measure 33
0001
0000
0010
0000
0100
1000
0100
0000
,  // measure 34
0010
0100
1000
0010
,  // measure 35
0200
0000
0300
0000
0001
1000
0001
0000
,  // measure 36
0020
0030
1000
0001
,  // measure 37
0010
0101
0010
0101
,  // measure 38
0010
0100
0010
1000
,  // measure 39
0100
1100
0010
1100
,  // measure 40
0010
0100
0010
1000
,  // measure 41
0010
1010
0001
1010
,  // measure 42
0001
0010
0100
1000
,  // measure 43
0010
0011
0100
0101
,  // measure 44
0010
1000
0100
1000
,  // measure 45
0010
0101
0100
1100
,  // measure 46
0100
0010
0001
1000
,  // measure 47
0010
0011
0010
1010
,  // measure 48
0010
1000
0100
0010
,  // measure 49
0001
0101
0010
1010
,  // measure 50
0100
0010
0001
0010
,  // measure 51
0100
0110
0001
0110
,  // measure 52
1000
0001
0001
1000
,  // measure 53
0220
0000
0000
0000
,  // measure 54
0330
0000
0000
0000
;

//---------------dance-single - STANDARD----------------
#NOTES:
     dance-single:
     STANDARD:
     Medium:
     6:
     0.480,0.417,0.580,0.315,0.000:
0000
0000
0000
0000
,
0000
0000
0000
0000
0000
0000
0001
1000
,
0010
1000
0200
0300
,
0002
0003
2000
3000
,
0001
0000
0001
0100
0001
0000
0001
0000
,
0001
0010
0001
0000
0001
0000
0001
1000
,
0001
0000
1000
0100
1000
0000
1000
0000
,
1000
0010
1000
0000
1000
0000
1000
0001
,
2000
3100
0002
0103
,
2000
3100
0002
1003
,
0001
0100
0010
1000
,
0020
0000
0000
1030
0100
0010
0001
0000
,
1000
1100
1100
0101
,
0101
0000
0010
1000
0010
0100
0002
0000
,
1003
0011
0011
1010
,
1010
0000
0001
0010
0001
0100
0002
0000
,
1003
1100
1100
1010
,
1010
0000
0100
0010
1000
0100
0020
0000
,
0130
1100
1100
0101
,
0102
1000
0100
1003
,
0120
0000
1030
0000
0001
0100
0001
0000
,
1000
0100
1000
0000
0001
0100
0001
0000
,
0102
0000
0013
0000
1000
0100
1000
0000
,
0001
0010
0001
0000
1000
0010
1000
0000
,
0120
0000
0130
0000
1000
0100
1000
0000
,
0001
0100
0010
0000
1000
0100
0010
0000
,
0102
0000
1003
0000
0001
0010
1000
0000
,
2100
0000
3001
0000
1000
0010
0001
0000
,
1020
0000
0130
0000
0010
0100
0001
0000
,
0001
1000
0100
0000
1000
0001
0100
0000
,
0012
0000
1003
0000
0001
0010
1000
0000
,
0010
1000
0100
0000
0010
0001
0100
0000
,
2100
0000
3010
0000
0100
0010
1000
0000
,
0010
1000
0100
0000
0010
0001
0100
0000
,
0012
0000
0103
0000
0001
0100
1000
0000
,
2200
0000
3300
0100
1000
0001
0010
0000
,
0100
1100
1100
0011
,
0011
0000
0100
0010
0001
0100
0020
0000
,
1030
0101
0101
1001
,
1001
0000
0001
0100
0001
1000
0200
0000
,
1300
0110
0110
0011
,
0011
0000
0010
0001
0010
1000
0020
0000
,
0130
1010
1010
0110
,
0110
0000
0010
0100
0001
0010
0200
0000
,
1300
0101
1100
1100
,
0101
0000
0001
0100
0010
1000
0020
0000
,
1030
1100
1010
1010
,
1100
0000
0010
0100
1000
0001
0020
0000
,
0031
0101
0011
0011
,
0101
0000
0010
0100
0001
0010
0200
0000
,
0310
0110
1001
1001
,
0110
0000
0001
1000
0001
1000
0001
0000
,
0220
0000
0000
0000
,
0330
0000
0000
0000
;

//---------------dance-single - BEGINNER----------------
#NOTES:
     dance-single:
     BEGINNER:
     Beginner:
     2:
     0.162,0.179,0.000,0.069,0.000: // measure 1
0000
0000
0000
0000
,  // measure 2
0000
0000
0000
0000
,  // measure 3
0000
0000
0000
0000
,  // measure 4
0000
0000
0000
0000
,  // measure 5
0001
0000
0001
0000
,  // measure 6
0001
0000
0000
0000
,  // measure 7
1000
0000
1000
0000
,  // measure 8
1000
0000
0000
0000
,  // measure 9
0020
0000
0030
0000
,  // measure 10
0200
0000
0300
0000
,  // measure 11
0020
0000
0030
0000
,  // measure 12
0200
0000
0300
0000
,  // measure 13
0001
0001
0001
0001
,  // measure 14
0001
0000
0000
0000
,  // measure 15
1000
1000
1000
1000
,  // measure 16
1000
0000
0000
0000
,  // measure 17
0001
0001
0001
0001
,  // measure 18
0001
0000
0000
0000
,  // measure 19
1000
1000
1000
1000
,  // measure 20
1000
0000
0000
0000
,  // measure 21
0010
0000
0010
0000
,  // measure 22
0100
0000
0010
0000
,  // measure 23
0100
0000
0100
0000
,  // measure 24
0010
0000
0100
0000
,  // measure 25
0010
0000
1000
0000
,  // measure 26
0010
0000
0001
0000
,  // measure 27
0020
0000
0030
0000
,  // measure 28
0200
0000
0300
0000
,  // measure 29
0001
0000
0001
0000
,  // measure 30
1000
0000
0001
0000
,  // measure 31
1000
0000
1000
0000
,  // measure 32
0001
0000
1000
0000
,  // measure 33
0001
0000
0100
0000
,  // measure 34
0001
0000
0010
0000
,  // measure 35
2000
0000
3000
0000
,  // measure 36
0001
0000
0001
0000
,  // measure 37
0100
0100
0100
0100
,  // measure 38
0100
0000
0010
0000
,  // measure 39
0100
0100
0100
0100
,  // measure 40
0100
0000
0001
0000
,  // measure 41
1000
1000
1000
1000
,  // measure 42
1000
0000
0010
0000
,  // measure 43
0001
0001
0001
0001
,  // measure 44
0001
0000
0100
0000
,  // measure 45
0010
0010
0010
0010
,  // measure 46
0010
0000
0001
0000
,  // measure 47
0010
0010
0010
0010
,  // measure 48
0010
0000
1000
0000
,  // measure 49
0100
0100
0100
0100
,  // measure 50
0100
0000
1000
0000
,  // measure 51
0100
0100
0100
0100
,  // measure 52
0100
0000
0001
0000
,  // measure 53
0010
0000
0000
0000
;
