#TITLE:Return of the Mack;
#SUBTITLE:;
#ARTIST:Mark Morrison;
#TITLETRANSLIT:;
#SUBTITLETRANSLIT:;
#ARTISTTRANSLIT:;
#GENRE:;
#CREDIT:;
#MENUCOLOR:;
#BANNER:Return of the Mack.png;
#BACKGROUND:Return of the Mack-BG.png;
#LYRICSPATH:;
#CDTITLE:;
#MUSIC:Return of the Mack.mp3;
#OFFSET:-0.040;
#SAMPLESTART:60.055;
#SAMPLELENGTH:12.000;
#SELECTABLE:YES;
#LISTSORT:;
#DISPLAYBPM:95.000;
#BPMS:0.000=95.430;
#STOPS:;
#TICKCOUNT:0.000=2;
#BGCHANGES:;
#KEYSOUNDS:;
#ATTACKS:;

//---------------dance-single - ----------------
#NOTES:
     dance-single:
     :
     Hard:
     7:
     0.380,0.382,0.057,0.104,0.241:
0000
0000
0000
0000
,
0000
0000
0000
0000
,
0000
0000
0000
0000
,
0000
0000
0000
0000
,
0001
1000
0001
0000
1000
0000
0100
0000
1000
0000
0001
0000
0110
0000
0000
0000
,
0001
1000
0001
0000
1000
0000
0001
0000
0100
0000
1000
0000
0110
0000
0000
0000
,
0100
0010
0100
0000
0010
0000
1000
0000
0001
0000
0100
0000
0101
0000
0000
0000
,
0010
0100
0010
0000
1000
0000
0001
0000
1000
0001
1000
0000
0001
0000
0100
0000
,
0010
0000
0100
0001
0000
0100
0010
0000
0000
0000
1000
0000
0001
0000
0000
0000
,
1000
0000
0100
0010
0000
0100
1000
0000
0000
0000
0010
0000
0100
0000
0000
0000
,
0010
0000
0100
0001
0000
0100
1000
0000
0000
0000
0010
0000
1000
0000
0000
0000
,
0001
0000
1000
0100
0000
0100
1000
0000
0000
0000
0100
0000
0010
0000
0000
0000
,
0001
0000
0010
0001
0000
0001
0100
0000
0000
0000
0100
0000
1000
0000
0000
0000
,
0010
0000
0010
1000
0000
1000
0100
0000
1000
0000
0000
0000
0001
0000
0000
0000
,
1000
0000
1000
0001
0000
0001
0100
0000
0000
0000
0100
0000
0010
0000
0000
0000
,
0010
0000
0010
0100
0000
0100
0010
0000
1000
0000
1000
0000
0001
0000
1000
0000
,
0002
0000
0000
0000
1003
0000
0200
0000
0000
0000
0000
0300
1000
0000
0100
0000
,
0010
0001
0100
0001
0010
0100
1000
0001
,
0200
0000
1300
0200
0000
0000
0310
0100
,
0010
0000
0100
0010
0200
0000
0300
0010
,
2000
0000
3010
0002
0000
0000
0013
1000
,
0100
1000
0001
0100
0001
1000
0001
1000
,
0200
0000
0310
0002
0000
0000
1003
0100
,
0010
0000
1000
0100
0010
0001
0100
0000
,
0100
0000
0000
0010
0000
0100
0001
0000
1000
0000
0001
0000
0010
0000
0000
0000
,
0010
0000
0000
0100
0000
1000
0001
0000
1000
0000
0100
0000
0001
0000
0000
0000
,
1000
0000
0000
0100
0000
0100
1000
0000
0010
0000
0100
0000
0010
0000
0000
0000
,
1000
0000
0100
0001
0000
0100
1000
0000
0010
0000
0001
0000
0100
0000
1000
0000
,
0010
0000
0000
0010
0000
0100
0001
0000
0000
1000
0000
0001
0010
0000
0100
0000
,
1000
0000
0000
1000
0000
0001
0100
0000
1000
0000
0100
0000
0001
0000
0100
0000
,
0010
0000
0000
1000
0000
0010
0100
0000
1000
0000
0100
0000
0010
0000
0001
0000
,
0100
0000
1000
0100
0000
0100
1000
0000
0010
0000
0001
0000
0100
0000
0000
0000
,
0010
1000
0001
0000
0100
0000
0001
0000
0010
0000
0100
0000
0110
0000
0000
0000
,
0010
1000
0010
0000
1000
0000
0100
0000
0010
0000
0001
0000
1100
0000
0000
0000
,
0100
1000
0001
0000
1000
0000
0010
0000
1000
0000
0001
0000
0101
0000
0000
0000
,
0001
1000
0001
0000
0100
0000
0001
0000
0010
0000
0100
0000
2000
0000
0000
0000
,
3100
0000
0000
0010
0000
0100
1000
0000
0001
0000
1000
0000
0010
0000
0000
0000
,
0010
0000
0000
0100
0000
0001
0100
0000
1000
0000
0001
0000
0010
0000
0000
0000
,
1000
0000
0000
0001
0000
1000
0100
0000
0100
0000
0010
0000
0001
0000
0000
0000
,
1000
0000
0100
1000
0000
1000
0100
0000
0010
0000
0001
0000
1000
0000
0100
0000
,
0020
0000
0000
0030
0000
0000
0000
0000
;

//---------------dance-single - BASIC----------------
#NOTES:
     dance-single:
     BASIC:
     Easy:
     3:
     0.201,0.227,0.114,0.066,0.000: // measure 1
0000
0000
0000
0000
,  // measure 2
0000
0000
0000
0000
,  // measure 3
0000
0000
0000
0000
,  // measure 4
0000
0000
0000
0000
,  // measure 5
1001
0001
1000
0001
,  // measure 6
1001
1000
0001
1000
,  // measure 7
1001
0100
0001
0100
,  // measure 8
1001
0010
0100
0100
,  // measure 9
0001
0100
1000
0001
,  // measure 10
1000
0001
0100
0000
,  // measure 11
0001
1000
0001
0000
,  // measure 12
0100
0010
0100
0000
,  // measure 13
0010
1000
0100
0100
,  // measure 14
0010
0001
0100
0000
,  // measure 15
0001
0100
1000
0000
,  // measure 16
1000
0100
0001
0001
,  // measure 17
2000
3000
1000
1000
,  // measure 18
0010
0100
0001
0100
,  // measure 19
0002
0003
0001
0010
,  // measure 20
0001
0010
0100
1000
,  // measure 21
0020
0030
0010
1000
,  // measure 22
0010
0010
1000
0100
,  // measure 23
2000
3000
1000
1000
,  // measure 24
0001
0002
2000
3003
,  // measure 25
1001
1000
0100
0100
,  // measure 26
0001
0001
0100
0100
,  // measure 27
1000
0100
0001
0000
,  // measure 28
0001
0010
1000
0000
,  // measure 29
1001
1000
0010
0010
,  // measure 30
0001
0001
0010
0010
,  // measure 31
1000
0010
0001
0010
,  // measure 32
1000
0100
0001
1000
,  // measure 33
1001
1000
0001
0100
,  // measure 34
1001
0001
1000
0100
,  // measure 35
1001
0010
0100
0010
,  // measure 36
1001
0100
0020
0030
,  // measure 37
0110
1000
0100
0100
,  // measure 38
0001
0001
0100
0100
,  // measure 39
1000
0100
0001
0000
,  // measure 40
0001
0100
1000
0000
,  // measure 41
1001
0000
0000
0000
;

//---------------dance-single - STANDARD----------------
#NOTES:
     dance-single:
     STANDARD:
     Medium:
     5:
     0.306,0.306,0.123,0.123,0.043:
0000
0000
0000
0000
,
0000
0000
0000
0000
,
0000
0000
0000
0000
,
0000
0000
0000
0000
,
0100
0000
0000
0100
0000
0000
0000
0000
1000
0000
0001
0000
0100
0000
0000
0000
,
0010
0000
0000
0010
0000
0000
0000
0000
0001
0000
0010
0000
1000
0000
0000
0000
,
0001
0000
0000
0001
0000
0000
0000
0000
1000
0000
0100
0000
1000
0000
0000
0000
,
1000
0000
0000
1000
0000
0000
0001
0000
1000
0000
0010
0000
0100
0000
0000
0000
,
0010
0100
0001
0100
0010
0000
1000
0000
,
1000
0100
0010
0001
0100
0000
0001
0000
,
0001
1000
0010
1000
0001
0000
0100
0000
,
0001
0010
1000
0010
0001
0000
1000
0000
,
0001
0100
0010
1000
0100
0000
0100
0000
,
1000
0010
0100
0001
0010
0000
0000
0000
,
0001
0100
0010
1000
0010
0000
0000
0000
,
1000
0010
0001
0010
1000
0000
0001
0000
,
2000
0000
3001
0002
0000
0003
1000
0000
,
0001
0000
0100
0000
0000
0001
0100
0000
1000
0000
0100
0000
1000
0000
0000
0000
,
0200
0000
0310
0020
0000
0030
1000
0100
,
2000
0000
0000
3000
0001
0000
0100
0000
0002
0000
0000
0000
1003
0000
0000
0000
,
0002
0000
1003
2000
0000
3000
1000
0000
,
0001
0010
0001
0010
1000
0010
1000
0000
,
0020
0000
0130
0200
0000
0300
0100
1000
,
0020
0000
0130
0001
0020
0000
0130
0000
,
0110
0000
1000
0001
0100
0001
0001
0000
,
0110
0000
0001
1000
0010
0100
0100
0000
,
0110
0000
0010
0100
0001
0010
0010
0000
,
1000
0100
1000
0001
0100
0000
0001
0000
,
1001
0000
0001
0100
1000
0010
0010
0000
,
1001
0000
1000
0100
0001
0010
0010
0000
,
0110
0000
0010
0100
0001
1000
1000
0000
,
1000
0100
1000
0001
0100
0000
0010
0000
,
0001
0000
0000
0001
0000
0000
0000
0000
1000
0000
0000
0000
0110
0000
0000
0000
,
1000
0000
0000
1000
0000
0000
0000
0000
0001
0000
0000
0000
0110
0000
0000
0000
,
0001
0000
0000
0001
0000
0000
0000
0000
0010
0000
0000
0000
1001
0000
0000
0000
,
1000
0000
0000
1000
0000
0000
0000
0000
0100
0000
0000
0000
1001
0000
0000
0000
,
0110
0000
0001
0100
0010
1000
0001
0000
,
0110
0000
1000
0100
0010
0001
0100
0000
,
1001
0000
1000
0010
1000
0100
0100
0000
,
1000
0100
0001
0100
1000
1000
0001
0001
,
2000
0000
0000
3000
0000
0000
0000
0000
;

//---------------dance-single - BEGINNER----------------
#NOTES:
     dance-single:
     BEGINNER:
     Beginner:
     1:
     0.114,0.132,0.038,0.038,0.000: // measure 1
0000
0000
0000
0000
,  // measure 2
0000
0000
0000
0000
,  // measure 3
0000
0000
0000
0000
,  // measure 4
0000
0000
0000
0000
,  // measure 5
1000
1000
1000
0000
,  // measure 6
0001
0001
0001
0000
,  // measure 7
1000
1000
1000
0000
,  // measure 8
0010
0100
0100
0000
,  // measure 9
0001
0000
1000
0000
,  // measure 10
1000
0000
0100
0000
,  // measure 11
1000
0000
0001
0000
,  // measure 12
0001
0000
0100
0000
,  // measure 13
0010
0000
0100
0000
,  // measure 14
0010
0000
0100
0000
,  // measure 15
0001
0000
1000
0000
,  // measure 16
1000
0000
0001
0000
,  // measure 17
2000
3000
0000
0000
,  // measure 18
0010
0000
0100
0000
,  // measure 19
0002
0003
0000
0000
,  // measure 20
0001
0000
1000
0000
,  // measure 21
0020
0030
0000
0000
,  // measure 22
0010
0000
0100
0000
,  // measure 23
2000
3000
0000
0000
,  // measure 24
0001
0000
1000
0000
,  // measure 25
1001
0000
0100
0000
,  // measure 26
0001
0000
0100
0000
,  // measure 27
1000
0000
0001
0000
,  // measure 28
0001
0000
1000
0000
,  // measure 29
1001
0000
0010
0000
,  // measure 30
0001
0000
0010
0000
,  // measure 31
1000
0000
0001
0000
,  // measure 32
1000
0000
0001
0000
,  // measure 33
1000
1000
1000
0000
,  // measure 34
0001
0001
0001
0000
,  // measure 35
0010
0010
0010
0000
,  // measure 36
0100
0000
0010
0000
,  // measure 37
0110
0000
0100
0000
,  // measure 38
0001
0000
0100
0000
,  // measure 39
0001
0000
1000
0000
,  // measure 40
1000
0000
0001
0000
,  // measure 41
1001
0000
0000
0000
;
