#TITLE:Poker Face;
#SUBTITLE:;
#ARTIST:Lady GaGa;
#TITLETRANSLIT:;
#SUBTITLETRANSLIT:;
#ARTISTTRANSLIT:;
#GENRE:;
#CREDIT:;
#MENUCOLOR:;
#BANNER:;
#BACKGROUND:;
#LYRICSPATH:;
#CDTITLE:;
#MUSIC:Poker Face.mp3;
#OFFSET:-0.020;
#SAMPLESTART:56.509;
#SAMPLELENGTH:12.000;
#SELECTABLE:YES;
#LISTSORT:;
#BPMS:0.000=119.000;
#STOPS:;
#TICKCOUNT:0.000=2;
#BGCHANGES:-0.75=Poker Face.avi=1=1=0=0,
99999=-nosongbg-=1.000=0=0=0 // don't automatically add -songbackground-;
#KEYSOUNDS:;
#ATTACKS:;

//---------------dance-single - BEGINNER----------------
#NOTES:
     dance-single:
     BEGINNER:
     Beginner:
     1:
     0.129,0.171,0.028,0.009,0.000: // measure 1
0000
0000
0000
0000
,  // measure 2
0000
0000
0000
0000
,  // measure 3
0000
0000
0000
0000
,  // measure 4
0000
0000
0000
0000
,  // measure 5
0100
0000
0000
0000
,  // measure 6
0000
0000
0000
0100
,  // measure 7
0100
0000
0000
0000
,  // measure 8
0000
0000
0000
0010
,  // measure 9
0010
0000
1000
0000
,  // measure 10
0001
0000
0000
0100
,  // measure 11
0100
0000
0001
0000
,  // measure 12
1000
0000
0000
0010
,  // measure 13
0010
0000
0010
0000
,  // measure 14
1000
0000
0001
0000
,  // measure 15
0100
0000
0100
0000
,  // measure 16
0001
0000
1000
0000
,  // measure 17
0001
0000
0010
0000
,  // measure 18
0001
0000
0000
0000
,  // measure 19
1000
0000
0010
0000
,  // measure 20
1000
0000
0000
0000
,  // measure 21
1001
0000
0000
0001
,  // measure 22
0001
0000
0000
1000
,  // measure 23
1000
0000
0001
0000
,  // measure 24
1000
0000
0000
0000
,  // measure 25
0110
0000
0000
0010
,  // measure 26
0010
0000
0000
0100
,  // measure 27
0100
0000
0010
0000
,  // measure 28
0200
0000
0300
0000
,  // measure 29
1000
0000
0100
0000
,  // measure 30
0001
0000
0100
0000
,  // measure 31
1000
1000
1000
0000
,  // measure 32
0001
0000
0000
0000
,  // measure 33
0010
0000
1000
0000
,  // measure 34
0100
0000
1000
0000
,  // measure 35
0010
0010
0010
0000
,  // measure 36
0100
0000
0000
0000
,  // measure 37
0001
0000
0100
0000
,  // measure 38
0001
0000
0010
0000
,  // measure 39
0001
0001
0001
0000
,  // measure 40
1000
0000
0000
0000
,  // measure 41
0100
0000
0001
0000
,  // measure 42
0100
0000
1000
0000
,  // measure 43
0100
0100
0100
0000
,  // measure 44
0010
0000
0000
0000
,  // measure 45
1001
0000
0001
0000
,  // measure 46
0001
0001
0001
0000
,  // measure 47
1000
0000
1000
0000
,  // measure 48
1000
1000
1000
0000
,  // measure 49
0100
0000
0100
0000
,  // measure 50
0100
0100
0100
0000
,  // measure 51
0010
0000
0010
0000
,  // measure 52
0010
0000
0100
0000
,  // measure 53
0010
0000
0000
0000
;

//---------------dance-single - LIGHT----------------
#NOTES:
     dance-single:
     LIGHT:
     Easy:
     4:
     0.289,0.318,0.141,0.179,0.000: // measure 1
0000
0000
0000
0000
,  // measure 2
0000
0000
0000
0000
,  // measure 3
0000
0000
0000
0000
,  // measure 4
0000
0000
0000
0000
,  // measure 5
0001
0000
1000
0000
,  // measure 6
0100
0000
0001
1000
,  // measure 7
0100
0000
0001
0000
,  // measure 8
0010
0000
0100
0001
,  // measure 9
0010
0010
1000
1000
,  // measure 10
0001
0001
0010
1000
,  // measure 11
0001
0001
0100
0100
,  // measure 12
1000
1000
0001
0100
,  // measure 13
1000
1000
0001
1000
,  // measure 14
0001
1000
0200
0300
,  // measure 15
2000
3100
0002
0103
,  // measure 16
1000
0100
0002
1003
,  // measure 17
0010
0010
1000
0100
,  // measure 18
0010
0001
0200
0300
,  // measure 19
0010
0001
0010
1000
,  // measure 20
0010
1000
0200
0300
,  // measure 21
2002
3000
0010
0013
,  // measure 22
2002
0003
0010
0020
,  // measure 23
3030
1000
2000
3000
,  // measure 24
0001
1000
0002
0003
,  // measure 25
0202
0300
1000
1003
,  // measure 26
0202
0300
0010
0020
,  // measure 27
0033
1000
1000
0000
,  // measure 28
0020
0000
0000
0030
,  // measure 29
1000
1000
0001
0001
,  // measure 30
1000
0001
1000
0001
1000
0000
0100
0000
,  // measure 31
0101
1000
0100
0001
,  // measure 32
1100
0001
0100
1000
,  // measure 33
0010
0010
0100
0100
,  // measure 34
0010
0100
0010
0100
0010
0000
1000
0000
,  // measure 35
1001
1000
0001
1000
,  // measure 36
1001
0001
1000
0001
,  // measure 37
0110
0010
0100
0010
,  // measure 38
1000
0001
1000
0001
0100
0000
0001
0000
,  // measure 39
0011
0001
0100
0001
,  // measure 40
1010
1000
0100
1000
,  // measure 41
1001
0100
0010
1000
,  // measure 42
0001
1000
0001
1000
0010
0000
0100
0000
,  // measure 43
0101
0010
0100
0001
,  // measure 44
1100
0010
0100
1000
,  // measure 45
0000
0001
0001
0000
1000
0000
1000
0000
,  // measure 46
0001
0000
1000
0001
0000
0000
0100
0000
,  // measure 47
0000
0001
0001
0000
0100
0000
1000
0000
,  // measure 48
0010
0000
1000
1000
0000
0000
0100
0000
,  // measure 49
0110
0001
0010
1000
,  // measure 50
0010
0000
0100
0100
0000
0000
0001
0000
,  // measure 51
0000
1000
0001
0000
1000
0000
0100
0000
,  // measure 52
0010
0000
0001
1000
0000
0100
0010
0000
,  // measure 53
0100
0000
0000
0000
;

//---------------dance-single - STANDARD----------------
#NOTES:
     dance-single:
     STANDARD:
     Medium:
     6:
     0.389,0.367,0.198,0.235,0.000: // measure 1
0000
0000
0000
0000
,  // measure 2
0000
0000
0000
0000
,  // measure 3
0000
0000
0000
0000
,  // measure 4
0000
0000
0000
0000
,  // measure 5
1000
1000
0001
0001
,  // measure 6
0100
0000
0100
0000
1000
0001
0100
0001
,  // measure 7
1000
1000
0010
0010
,  // measure 8
0001
0000
0001
0000
0010
1000
0010
0100
,  // measure 9
0001
0101
1000
1100
,  // measure 10
0001
0000
0101
0000
1000
0100
0001
0100
,  // measure 11
1000
1010
0001
0011
,  // measure 12
1000
0000
1010
0000
0001
0010
0100
1000
,  // measure 13
0001
0000
0001
0000
0010
0001
0100
0000
,  // measure 14
0010
1000
0001
0100
0020
0000
0030
0000
,  // measure 15
1000
0100
1000
0000
0001
0100
0001
0000
,  // measure 16
1000
0100
1000
0001
0100
0000
0101
0000
,  // measure 17
0010
0000
1000
0000
0010
1000
0100
0000
,  // measure 18
1000
0100
1000
0010
2000
0000
3000
0000
,  // measure 19
0001
0010
0001
0000
1000
0010
1000
0000
,  // measure 20
0001
0010
0100
1000
0020
0000
0130
0000
,  // measure 21
2002
0000
3003
0100
0010
0000
1000
0000
,  // measure 22
0002
0000
0003
1000
0020
0000
0230
0000
,  // measure 23
0300
0001
0100
0001
0200
0000
0300
0010
,  // measure 24
1000
0010
1000
0020
0000
0000
0030
0000
,  // measure 25
2002
0000
3003
1000
0100
0000
1000
0000
,  // measure 26
0020
0000
0030
1000
0001
0000
0200
0000
,  // measure 27
0300
0001
0100
0001
0200
0000
0300
0001
,  // measure 28
0010
0001
0010
0002
0000
0000
0003
0000
,  // measure 29
1001
1000
0000
1000
0000
0001
0000
0001
,  // measure 30
0000
1000
0100
0001
0100
0000
1000
0000
,  // measure 31
1002
0100
1000
0103
,  // measure 32
0102
0000
1000
0000
0010
0010
0013
0000
,  // measure 33
0110
0100
0000
0100
0000
0010
0000
0010
,  // measure 34
0000
1000
0100
1000
0010
0000
0100
0000
,  // measure 35
2010
0010
0100
3100
,  // measure 36
0012
0000
0010
0000
0100
0100
0103
0000
,  // measure 37
1001
0001
0000
0100
0000
0010
0000
1000
,  // measure 38
0000
0010
0100
0001
0010
0000
1000
0000
,  // measure 39
2010
0001
0010
3001
,  // measure 40
0012
0000
1000
0000
0010
0010
0013
0000
,  // measure 41
1001
0100
0000
0010
0000
0100
0000
0010
,  // measure 42
0000
1000
0001
0100
0010
0000
1000
0000
,  // measure 43
2100
0001
0100
3010
,  // measure 44
0102
0000
1000
0000
0010
0010
0020
0000
,  // measure 45
0033
1000
1000
1000
0100
0000
0010
0000
,  // measure 46
0001
0001
0001
0100
0000
0010
1000
0010
,  // measure 47
0000
0001
0001
0001
1000
0000
0001
0000
,  // measure 48
0010
0010
0010
0100
0000
1000
0010
1000
,  // measure 49
0000
0001
0001
0001
0010
0000
1000
0000
,  // measure 50
0100
0100
0100
1000
0000
0100
0001
0100
,  // measure 51
0000
0010
0010
0010
1000
0000
0100
0000
,  // measure 52
0001
0001
0001
0010
0000
1000
0100
0010
,  // measure 53
0001
0000
0000
0000
;

//---------------dance-single - HEAVY----------------
#NOTES:
     dance-single:
     HEAVY:
     Hard:
     7:
     0.538,0.514,0.348,0.245,0.000: // measure 1
0000
0000
0000
0000
,  // measure 2
0000
0000
0000
0000
,  // measure 3
0000
0000
0000
0000
,  // measure 4
0000
0000
0000
0000
,  // measure 5
1000
1000
0100
0100
0001
0001
0100
0100
,  // measure 6
1000
1000
0100
0100
0010
1000
0010
0100
,  // measure 7
0001
0001
0010
0010
1000
1000
0010
0010
,  // measure 8
0001
0001
0010
0010
0001
0010
0100
1000
,  // measure 9
1001
0100
0001
1000
1001
0100
0001
1000
,  // measure 10
1001
0010
0001
1000
0001
0100
1000
0100
,  // measure 11
0101
1000
0010
1000
0101
0001
0010
0001
,  // measure 12
1100
1000
0010
1000
0010
1000
0100
0010
,  // measure 13
1001
0001
0010
0001
1000
0100
0010
0001
,  // measure 14
1000
0100
1000
0010
2000
0000
3001
0000
,  // measure 15
1000
1000
0001
0001
1000
0100
0001
0100
,  // measure 16
0010
0100
1000
0100
0010
0001
0100
0010
,  // measure 17
1000
1000
0010
0100
0001
0001
0100
0010
,  // measure 18
1000
0100
0001
0100
1000
0010
0001
0010
,  // measure 19
1000
0010
0100
0010
1000
0001
0100
0010
,  // measure 20
1000
0001
0010
0100
0010
0001
1000
0100
,  // measure 21
2002
0000
3003
0010
0200
0000
0301
0000
,  // measure 22
2002
0000
3003
0010
0100
1000
0100
0010
,  // measure 23
0001
1000
0100
1000
0002
0000
1003
0001
,  // measure 24
0100
0001
1000
0010
0001
0100
1000
0100
,  // measure 25
0220
0000
0330
0001
2000
0000
3010
0000
,  // measure 26
0220
0000
0330
1000
0100
0001
0200
0000
,  // measure 27
0301
0010
0100
1000
0100
0010
0001
0100
,  // measure 28
0020
0000
0000
0030
,  // measure 29
1001
0010
0001
0100
1001
0010
0001
0100
,  // measure 30
0010
0100
0001
1000
0100
0010
0001
0000
,  // measure 31
2100
0000
3001
0002
0000
0013
0010
0000
,  // measure 32
1100
0000
0001
1000
0101
0101
1000
0001
,  // measure 33
0110
0001
1000
0100
0110
0001
1000
0010
,  // measure 34
0100
0010
1000
0001
0100
0001
1000
0000
,  // measure 35
0102
0000
0103
0200
0000
1300
1000
0000
,  // measure 36
0110
0000
1000
0001
0110
0110
0001
1000
,  // measure 37
1001
0010
0100
1000
1001
0010
0100
1000
,  // measure 38
1001
0010
0100
0001
0100
0010
1000
0000
,  // measure 39
1002
0000
0013
0020
0000
0130
0100
0000
,  // measure 40
1001
0000
0001
0100
1001
1001
1000
0100
,  // measure 41
1001
0010
0100
1000
1001
0010
0100
0001
,  // measure 42
1001
0100
1000
0100
0001
0010
0100
0000
,  // measure 43
0120
0000
1030
2000
0000
3100
0100
0000
,  // measure 44
1001
0000
0100
0010
1001
1001
0100
0010
,  // measure 45
0000
0001
0001
0001
0100
0100
0100
0010
,  // measure 46
0010
0010
1000
2000
0000
3001
0100
0001
,  // measure 47
1000
0010
0010
0010
1000
1000
1000
0100
,  // measure 48
0100
0100
0010
0020
0000
0031
0100
0001
,  // measure 49
0010
0001
0001
0001
0010
0010
0010
0100
,  // measure 50
0100
0100
1000
2000
0000
3001
0100
1000
,  // measure 51
0100
0010
0010
0010
1000
1000
1000
0100
,  // measure 52
0100
0100
0001
0002
0000
0103
1000
0100
,  // measure 53
0001
0000
0000
0000
;
