#TITLE:LoveGame;
#SUBTITLE:;
#ARTIST:Lady GaGa;
#TITLETRANSLIT:;
#SUBTITLETRANSLIT:;
#ARTISTTRANSLIT:;
#GENRE:;
#CREDIT:;
#MENUCOLOR:;
#BANNER:LoveGame.png;
#BACKGROUND:LoveGame-BG.png;
#LYRICSPATH:;
#CDTITLE:;
#MUSIC:LoveGame.mp3;
#OFFSET:-0.120;
#SAMPLESTART:54.954;
#SAMPLELENGTH:12.000;
#SELECTABLE:YES;
#LISTSORT:;
#BPMS:0.000=105.000;
#STOPS:;
#TICKCOUNT:0.000=2;
#BGCHANGES:;
#KEYSOUNDS:;
#ATTACKS:;

//---------------dance-single - HEAVY----------------
#NOTES:
     dance-single:
     HEAVY:
     Hard:
     9:
     0.515,0.522,0.322,0.073,0.317: // measure 1
0000
0000
0000
0000
,  // measure 2
0000
0000
0000
0000
,  // measure 3
0000
0000
0000
0000
,  // measure 4
0000
0000
0000
0000
,  // measure 5
1001
0000
0100
0000
0001
0100
0000
0100
0001
0000
0000
0000
1000
0001
1000
0000
,  // measure 6
0110
0000
1000
0000
0001
0010
0000
0010
0001
0000
0000
0000
1000
0100
1000
0000
,  // measure 7
0110
0000
0001
0000
1000
0100
0000
0001
0100
0000
0000
0000
1000
0100
0001
0000
,  // measure 8
0110
0000
0001
0000
1000
0010
0000
0001
0010
0000
1000
0000
0100
0000
0010
0000
,  // measure 9
0001
0000
0101
0000
0000
0101
0000
0000
0101
0000
0000
0000
0010
0000
1000
0000
,  // measure 10
0000
1000
0010
0100
0001
1000
0010
0100
,  // measure 11
0001
0000
1010
0000
0000
1010
0000
0000
1010
0000
0000
0000
0001
0000
1000
0000
,  // measure 12
0000
0000
1000
0000
0000
0100
0000
0000
0010
0000
0001
0000
0010
0000
0100
0000
,  // measure 13
0010
0010
0001
1000
0100
1000
0001
0001
,  // measure 14
1000
0100
0001
0100
1000
0001
0100
1000
,  // measure 15
0101
1000
0100
0000
0101
1000
0100
0000
,  // measure 16
0100
1000
0101
0000
0100
1000
0101
0000
,  // measure 17
0120
1030
0120
0031
,  // measure 18
0010
0000
1000
0001
1000
0000
0001
0000
0020
0000
0000
0000
0031
0000
0100
0000
,  // measure 19
0010
0000
1000
0100
0001
0100
1000
0001
,  // measure 20
1000
0010
0100
0001
0020
0000
0130
1000
,  // measure 21
0001
0000
0000
0000
1010
0010
0100
0000
0001
0000
0000
0000
0011
0010
0100
0000
,  // measure 22
1000
0000
0000
0000
1100
0010
0001
0000
0100
0000
0000
0000
0101
0010
1000
0000
,  // measure 23
0001
0000
0000
0000
0110
0001
0010
0000
1000
0000
0000
0000
0110
1000
0010
0000
,  // measure 24
0001
0000
0000
0000
0101
1000
0100
0000
0010
0000
0000
0000
1001
0000
0000
0000
,  // measure 25
0110
0000
0001
0100
0001
0000
0100
0000
0010
1000
0010
0000
1000
0000
0100
1000
,  // measure 26
0100
0000
1000
0000
0001
0010
0001
0000
0010
0000
0001
1000
0001
0000
1000
0000
,  // measure 27
1100
0000
0101
0000
1000
0100
0000
0001
0100
0000
0000
0000
1000
0100
0010
0000
,  // measure 28
0110
0000
0001
0000
0010
0100
0000
0100
1000
0000
0000
0000
1001
0000
0001
0100
,  // measure 29
0001
0000
1000
0000
0001
0100
0001
0000
1000
0000
0010
1000
0010
0000
0001
0000
,  // measure 30
0010
1000
0010
0000
0001
0000
0010
1000
0010
0000
0100
0000
0002
0000
0000
0000
,  // measure 31
1003
0000
1100
0000
0001
0100
0000
1000
0100
0000
0000
0000
0010
0100
0001
0000
,  // measure 32
1000
0000
0010
0000
0001
0010
0000
1000
0010
0000
0000
0000
0100
0000
0010
0000
,  // measure 33
1001
0000
0010
0001
0100
0000
0001
0000
0010
1000
0100
0000
0010
0000
0100
0001
,  // measure 34
0010
0000
0100
0000
1000
0010
0100
0000
0001
0000
1000
0010
0100
0000
0001
0000
,  // measure 35
1000
1000
0100
0100
1000
0010
0100
0000
,  // measure 36
1000
0100
0001
0100
1000
0000
0100
0000
0001
0000
1000
0000
0200
0000
0000
0000
,  // measure 37
0310
0000
0001
0000
1000
0100
1000
0000
0010
0000
0001
0100
0001
0000
0010
0000
,  // measure 38
0100
0010
0100
0000
1000
0000
0001
1000
0001
0000
0100
0000
0010
0000
1000
0000
,  // measure 39
0001
0100
1000
0100
0001
1000
0200
0000
,  // measure 40
1300
0010
0100
0001
0010
0000
0001
0010
0100
0000
1000
0000
0001
0000
0000
0000
,  // measure 41
1000
0000
0100
0000
1000
0100
0000
0100
0010
0000
0000
0000
0001
0000
0010
0001
,  // measure 42
0000
0000
1000
0000
0000
0001
0000
0000
0100
0000
0000
0000
0010
0001
1000
0000
;

//---------------dance-single - BEGINNER----------------
#NOTES:
     dance-single:
     BEGINNER:
     Beginner:
     1:
     0.119,0.150,0.000,0.000,0.000: // measure 1
0000
0000
0000
0000
,  // measure 2
0000
0000
0000
0000
,  // measure 3
0000
0000
0000
0000
,  // measure 4
0000
0000
0000
0000
,  // measure 5
0001
0001
0001
0000
,  // measure 6
1000
0000
1000
0000
,  // measure 7
0100
0000
1000
0000
,  // measure 8
0001
0000
0100
0000
,  // measure 9
1000
0000
0000
0000
,  // measure 10
0010
0000
0000
0000
,  // measure 11
0001
0000
0000
0000
,  // measure 12
0000
0000
0000
0000
,  // measure 13
0001
0000
0100
0000
,  // measure 14
0001
0000
0100
0000
,  // measure 15
1000
0000
1000
0000
,  // measure 16
0001
0000
0001
0000
,  // measure 17
0010
0000
0010
0000
,  // measure 18
0001
0000
0100
0000
,  // measure 19
0001
0000
0100
0000
,  // measure 20
1000
0000
1000
0000
,  // measure 21
1000
0000
0001
0000
,  // measure 22
1000
0000
0001
0000
,  // measure 23
0010
0000
0100
0000
,  // measure 24
0010
0000
0100
0000
,  // measure 25
0001
0001
0001
0000
,  // measure 26
1000
1000
1000
0000
,  // measure 27
0001
0000
0000
0000
,  // measure 28
0100
0000
0000
0000
,  // measure 29
0010
0010
0010
0000
,  // measure 30
0100
0100
0100
0000
,  // measure 31
1000
0000
0000
0000
,  // measure 32
0100
0000
0000
0000
,  // measure 33
0001
0001
0001
0000
,  // measure 34
1000
1000
1000
0000
,  // measure 35
0010
0010
0010
0000
,  // measure 36
0100
0100
0100
0000
,  // measure 37
0001
0001
0001
0000
,  // measure 38
0100
0100
0100
0000
,  // measure 39
1000
1000
1000
0000
,  // measure 40
0010
0010
0010
0000
,  // measure 41
1000
0000
0001
0000
,  // measure 42
1000
1000
0000
0000
;

//---------------dance-single - LIGHT----------------
#NOTES:
     dance-single:
     LIGHT:
     Easy:
     4:
     0.284,0.305,0.302,0.083,0.000: // measure 1
0000
0000
0000
0000
,  // measure 2
0000
0000
0000
0000
,  // measure 3
0000
0000
0000
0000
,  // measure 4
0000
0000
0000
0000
,  // measure 5
1001
0100
0001
0010
,  // measure 6
1001
0010
1000
0100
,  // measure 7
1001
0100
0001
0010
,  // measure 8
1001
0010
1000
0100
,  // measure 9
0001
0001
0000
0000
1000
0000
0100
0000
,  // measure 10
0000
0010
0010
0000
0001
0000
1000
0000
,  // measure 11
0001
0101
1000
0010
,  // measure 12
1000
1100
0010
0001
,  // measure 13
1000
0100
1000
0000
0100
0000
0010
0000
,  // measure 14
0001
0010
0001
0000
0100
0000
0010
0000
,  // measure 15
1000
0001
1000
0000
1000
0001
1000
0000
,  // measure 16
0001
1000
0001
0000
0001
1000
0001
0000
,  // measure 17
0220
0330
2002
3003
,  // measure 18
1000
1000
0010
0001
,  // measure 19
0100
0001
1000
1000
,  // measure 20
0100
1000
0010
0001
,  // measure 21
0100
0101
0000
1100
,  // measure 22
0000
0110
0000
1100
,  // measure 23
0000
0011
0000
1010
,  // measure 24
0000
1001
0000
0011
,  // measure 25
1001
0010
0100
0010
,  // measure 26
1001
0001
0100
0001
,  // measure 27
0110
1000
0100
0010
,  // measure 28
0110
0001
0100
0010
,  // measure 29
1001
0100
1000
0100
,  // measure 30
1001
0010
1000
0001
,  // measure 31
0011
1000
0001
1000
,  // measure 32
1010
0001
1000
0001
,  // measure 33
0110
0001
0100
0010
,  // measure 34
0110
1000
0100
0010
,  // measure 35
0001
1000
0001
0000
2000
0000
3100
0000
,  // measure 36
1000
0001
1000
0000
0002
0000
0103
0000
,  // measure 37
1100
0001
0010
1000
,  // measure 38
0011
1000
0100
0001
,  // measure 39
1000
0010
1000
0000
0002
0000
0103
0000
,  // measure 40
0001
0010
0001
0000
2000
0000
3100
0000
,  // measure 41
0100
0010
0001
0110
,  // measure 42
0100
0000
0010
0000
1000
0000
0010
0100
;

//---------------dance-single - STANDARD----------------
#NOTES:
     dance-single:
     STANDARD:
     Medium:
     6:
     0.343,0.370,0.052,0.062,0.057: // measure 1
0000
0000
0000
0000
,  // measure 2
0000
0000
0000
0000
,  // measure 3
0000
0000
0000
0000
,  // measure 4
0000
0000
0000
0000
,  // measure 5
1001
0000
0100
0000
0001
0000
0010
0001
,  // measure 6
1000
0000
0001
0000
0010
0000
0010
1000
,  // measure 7
0100
0000
1000
0000
0001
0000
0100
0001
,  // measure 8
0010
0000
0010
0000
0001
0000
1000
0001
,  // measure 9
0100
0000
0010
0000
0000
1000
0000
0000
1000
0000
0000
0000
0010
0000
0001
0000
,  // measure 10
0000
0010
1000
0000
0001
0000
1000
0000
,  // measure 11
0001
0000
0100
0000
0000
0100
0000
0000
0100
0000
0000
0000
0010
0000
1000
0000
,  // measure 12
0000
0000
0001
0000
0000
0001
0000
0000
0001
0000
0000
0000
0100
0000
0000
0000
,  // measure 13
1000
0001
0100
0000
0010
0001
0100
0000
,  // measure 14
0001
1000
0100
0000
0010
1000
0100
0000
,  // measure 15
1000
0010
2000
0000
3001
0010
0002
0000
,  // measure 16
1003
0100
2000
0000
3001
0100
0001
0000
,  // measure 17
0120
1030
0120
0031
,  // measure 18
1000
0001
0100
0010
2000
0000
0010
0000
,  // measure 19
3001
0000
1000
0100
1000
0100
0010
0000
,  // measure 20
0001
0010
0100
0000
0110
0000
1001
0000
,  // measure 21
0001
0100
0001
0000
1000
0100
1000
0000
,  // measure 22
0001
0100
0001
0100
1000
0100
1000
0000
,  // measure 23
1000
0010
1000
0000
0001
0010
0001
0000
,  // measure 24
1000
0010
1000
0010
0001
0010
0100
0000
,  // measure 25
0001
0100
1000
0000
0001
0100
1000
0000
,  // measure 26
0001
0010
1000
0000
0001
0010
1000
0000
,  // measure 27
1000
0000
0001
0000
0000
0001
0000
0000
0001
0000
0000
0000
0010
0000
0000
0010
,  // measure 28
0000
0000
1000
0000
0000
1000
0000
0000
1000
0000
0000
0000
0100
0000
0010
0000
,  // measure 29
0001
0100
0010
0000
0001
0100
0010
0000
,  // measure 30
1000
0010
0100
0000
0010
0010
0100
0000
,  // measure 31
1000
0000
0100
0000
0000
0100
0000
0000
0100
0000
0000
0000
0010
0000
0001
0000
,  // measure 32
1000
0000
0010
0000
0000
0010
0000
0000
0010
0000
0000
0000
0100
0000
0000
0000
,  // measure 33
0001
0100
1000
0000
1000
0010
0001
0000
,  // measure 34
1000
0100
0001
0000
0001
0010
1000
0000
,  // measure 35
0001
0100
1000
0100
0001
0100
1000
0000
,  // measure 36
0001
0010
1000
0010
0001
0010
1000
0000
,  // measure 37
0001
0100
0010
0000
1000
0100
0010
0000
,  // measure 38
0001
0010
0100
0000
1000
0010
0100
0000
,  // measure 39
0010
0100
1000
0100
0010
0100
1000
0000
,  // measure 40
0001
0010
0100
0010
0001
0010
0100
0000
,  // measure 41
0001
0000
0010
0000
0000
0010
0000
0000
0010
0000
0000
0000
1000
0000
0000
1000
,  // measure 42
0000
0000
0100
0000
0000
0100
0000
0000
0100
0000
0000
0000
0010
0000
0001
0000
;
