#TITLE:I'm In Miami Trick;
#SUBTITLE:;
#ARTIST:LMFAO;
#TITLETRANSLIT:;
#SUBTITLETRANSLIT:;
#ARTISTTRANSLIT:;
#GENRE:;
#CREDIT:SpyHunter29;
#MENUCOLOR:;
#METERTYPE:DDR X;
#BANNER:I'm In Miami Trick.png;
#DISC:I'm In Miami Trick.png;
#BACKGROUND:I'm In Miami Trick-BG.png;
#PREVIEW:I'm In Miami Trick-BG.png;
#LYRICSPATH:;
#CDTITLE:./CDTITLES/SpyHunter29 Originals.png;
#MUSIC:I'm In Miami Trick.mp3;
#SAMPLESTART:44.580;
#SAMPLELENGTH:15.000;
#SELECTABLE:YES;
#OFFSET:-0.040;
#BPMS:0.000=128.000;
#STOPS:;
#BGCHANGES:;

//---------------dance-single - BEGINNER----------------
#NOTES:
     dance-single:
     BEGINNER:
     Beginner:
     1:
     0.116,0.154,0.043,0.000,0.000: // measure 1
0000
0000
0000
0000
,  // measure 2
0000
0000
0000
0000
,  // measure 3
0000
0000
0000
0000
,  // measure 4
0000
0000
0000
0000
,  // measure 5
1000
0000
1000
0000
,  // measure 6
0001
0000
0001
0000
,  // measure 7
1000
0000
1000
0000
,  // measure 8
0010
0010
0010
0010
,  // measure 9
0000
0000
0000
0100
,  // measure 10
0000
0000
0000
0010
,  // measure 11
0000
0000
0000
0100
,  // measure 12
0000
0000
0000
1001
,  // measure 13
0000
0000
0000
0001
,  // measure 14
0000
0000
0000
1000
,  // measure 15
0000
0000
0000
0001
,  // measure 16
0000
0000
0000
1000
,  // measure 17
0000
0000
0000
1001
,  // measure 18
0000
0000
0001
0001
,  // measure 19
0001
0000
0000
0000
,  // measure 20
0000
1000
0000
1000
,  // measure 21
1000
0000
0110
0000
,  // measure 22
0000
0000
0010
0000
,  // measure 23
0010
0000
0000
0000
,  // measure 24
0100
0000
0100
0100
,  // measure 25
0000
0001
0000
0001
,  // measure 26
0000
1000
0000
1000
,  // measure 27
0000
0010
0000
0010
,  // measure 28
0000
0100
0100
0100
,  // measure 29
0000
0001
0000
0001
,  // measure 30
0000
1000
0000
1000
,  // measure 31
0000
0100
0000
0100
,  // measure 32
0000
0010
0010
0010
,  // measure 33
0000
0000
0001
0001
,  // measure 34
0000
0000
0000
0000
,  // measure 35
0000
0000
1000
1000
,  // measure 36
0000
0000
0000
0000
,  // measure 37
0000
0000
0001
0001
,  // measure 38
0000
0000
0000
0000
,  // measure 39
0000
0000
1000
1000
,  // measure 40
0000
0000
0000
0000
,  // measure 41
0001
0001
0000
0000
,  // measure 42
1000
1000
0000
0000
,  // measure 43
0010
0010
0000
0000
,  // measure 44
0100
0100
0000
0000
,  // measure 45
0000
0001
0000
0100
,  // measure 46
0000
1000
0000
0100
,  // measure 47
0100
0000
0010
0000
,  // measure 48
0000
0000
0000
1001
;

//---------------dance-single - BASIC----------------
#NOTES:
     dance-single:
     BASIC:
     Easy:
     4:
     0.279,0.286,0.225,0.215,0.000: // measure 1
0000
0000
0000
0000
,  // measure 2
0000
0000
0000
0000
,  // measure 3
0000
0000
0000
0000
,  // measure 4
0000
0000
0000
0000
,  // measure 5
0001
1000
0100
1001
,  // measure 6
1000
0001
0010
1001
,  // measure 7
0001
0100
0010
0110
,  // measure 8
1000
0100
0010
0110
,  // measure 9
0000
0001
0100
0002
,  // measure 10
0003
1000
0100
2000
,  // measure 11
3000
0001
0100
1000
,  // measure 12
0010
1000
0100
0020
,  // measure 13
0030
0001
0010
0200
,  // measure 14
0300
1000
0010
0200
,  // measure 15
0300
0010
1000
0100
,  // measure 16
1000
0002
2000
0000
,  // measure 17
3003
0000
0000
1001
,  // measure 18
0000
0000
0010
0010
,  // measure 19
0010
0000
0100
0000
,  // measure 20
0001
1000
0002
2000
,  // measure 21
0000
3003
0000
1001
,  // measure 22
0000
0000
0100
0100
,  // measure 23
0100
0000
0010
0000
,  // measure 24
0001
0100
0001
1000
,  // measure 25
0000
0100
0010
0110
,  // measure 26
0000
0010
0100
0110
,  // measure 27
0000
0001
1000
1100
,  // measure 28
0000
1000
0001
0011
,  // measure 29
0000
0001
0010
1001
,  // measure 30
0000
1000
0100
1001
,  // measure 31
0000
1000
0001
0101
,  // measure 32
0000
0001
1000
1010
,  // measure 33
0001
0100
0001
0100
,  // measure 34
1000
0100
0001
2000
,  // measure 35
3100
1000
0010
1000
,  // measure 36
0100
0010
0001
0020
,  // measure 37
0130
1000
0010
1000
,  // measure 38
0001
0100
0010
2000
,  // measure 39
3100
1000
0010
0100
,  // measure 40
0010
1000
0002
0003
,  // measure 41
0010
0010
0010
1100
,  // measure 42
0100
0100
0100
0011
,  // measure 43
0001
0001
0001
1010
,  // measure 44
1000
1000
1000
0101
,  // measure 45
0000
1000
0100
0202
,  // measure 46
0303
0001
0010
1000
,  // measure 47
2020
3030
0202
0303
,  // measure 48
0000
0001
1000
0002
,  // measure 49
0000
0000
0003
0000
;

//---------------dance-single - DIFFICULT----------------
#NOTES:
     dance-single:
     DIFFICULT:
     Medium:
     6:
     0.388,0.444,0.343,0.086,0.048: // measure 1
0000
0000
0000
0000
,  // measure 2
0000
0000
0000
0000
,  // measure 3
0000
0000
0000
0000
,  // measure 4
0000
0000
0000
0000
,  // measure 5
0100
0010
0100
0110
,  // measure 6
0010
0100
0010
1001
,  // measure 7
1000
0001
1000
1001
,  // measure 8
0010
0000
0100
0000
1000
0100
0010
0001
,  // measure 9
0000
0001
0100
0010
1000
0000
1010
0000
,  // measure 10
0100
0000
1000
0100
0001
0000
0101
0000
,  // measure 11
1000
0000
0010
1000
0010
0000
0100
0001
,  // measure 12
0100
1100
0101
2200
,  // measure 13
3300
1000
0010
0100
0001
0000
0011
0000
,  // measure 14
0000
0001
0010
0100
1000
0000
1100
0000
,  // measure 15
0000
0010
0100
1000
0001
0000
0010
0000
,  // measure 16
0011
1100
1010
0202
,  // measure 17
0303
0000
1000
0000
0000
1000
0000
0000
1000
0000
0000
0000
1001
0000
0000
0000
,  // measure 18
0000
0000
0100
0000
0000
0100
0000
0000
0100
0000
0000
0000
0001
0000
0100
0000
,  // measure 19
1000
0010
0100
0001
,  // measure 20
1000
0010
1000
0001
0010
0001
2000
0000
,  // measure 21
0000
0000
3001
1001
,  // measure 22
0000
0000
0001
0000
0000
0001
0000
0000
0001
0000
0000
0000
0100
0000
1000
0000
,  // measure 23
0010
1000
0100
0010
,  // measure 24
0001
0100
0001
1000
0100
1000
0002
0000
,  // measure 25
0003
0000
0100
0000
0000
0100
0000
0000
0100
0000
0000
0000
0110
0000
0000
0000
,  // measure 26
0000
0000
0010
0000
0000
0010
0000
0000
0010
0000
0000
0000
0110
0000
0000
0000
,  // measure 27
0000
0000
1000
0000
0000
0100
0000
0000
1000
0000
0000
0000
1001
0000
0000
0000
,  // measure 28
0000
0001
0100
0010
1000
0000
0001
0000
,  // measure 29
0000
0000
0010
0000
0000
0001
0000
0000
0010
0000
0000
0000
1100
0000
0000
0000
,  // measure 30
0000
0000
0001
0000
0000
0100
0000
0000
0001
0000
0000
0000
1010
0000
0000
0000
,  // measure 31
0000
0000
1000
0000
0000
0100
0000
0000
0001
0000
0000
0000
1001
0000
0000
0000
,  // measure 32
0000
0010
0100
1000
0001
0000
1000
0000
,  // measure 33
0010
0000
0100
0000
0010
1000
0100
0000
,  // measure 34
1000
0000
0001
0000
0100
0001
0000
1000
,  // measure 35
0100
0000
0010
0000
0001
0010
0100
0000
,  // measure 36
1000
0000
0010
0000
1000
0001
0100
0010
,  // measure 37
0100
0000
0001
0000
0010
0001
0010
0000
,  // measure 38
0100
0000
1000
0000
0010
1000
0000
1000
,  // measure 39
0010
0000
0100
0000
1000
0100
0001
0000
,  // measure 40
0100
0000
0010
0000
1000
0001
0000
0000
,  // measure 41
0110
0000
0110
0000
1000
0100
0010
0001
,  // measure 42
0101
0000
0101
0000
0010
1000
0001
0000
,  // measure 43
0011
0000
1100
0000
1000
0100
0010
0001
,  // measure 44
0011
0000
0101
0000
0010
0100
0010
1000
,  // measure 45
0000
0001
0100
0010
1000
0000
1001
0000
,  // measure 46
0000
0010
0100
1000
0001
0000
0110
0000
,  // measure 47
1000
0100
0001
0000
1000
0100
0001
0000
,  // measure 48
0000
0100
0010
0001
2000
0000
0002
0000
,  // measure 49
0000
0000
0000
3003
;

//---------------dance-single - EXPERT----------------
#NOTES:
     dance-single:
     EXPERT:
     Hard:
     8:
     0.536,0.526,0.333,0.182,0.236: // measure 1
0000
0000
0000
0000
,  // measure 2
0000
0000
0000
0000
,  // measure 3
0000
0000
0000
0000
,  // measure 4
0000
0000
0000
0000
,  // measure 5
0000
0000
0100
0000
0000
0100
0000
0000
0100
0000
0000
0000
1000
0000
0000
0010
,  // measure 6
0000
0000
0100
0000
0000
0100
0000
0000
0100
0000
0000
0000
0001
0000
0000
0010
,  // measure 7
0000
0000
0001
0000
0000
1000
0000
0000
0001
0000
0000
0000
0010
0000
0000
0000
,  // measure 8
0001
0000
0001
0000
0100
0000
0100
0000
0010
0000
1000
0010
1000
0010
1000
0000
,  // measure 9
0000
1000
0100
0010
0001
0000
1002
0000
,  // measure 10
1003
0000
0010
1000
0100
0000
2001
0000
,  // measure 11
3001
1000
0100
1000
0010
0100
0001
0010
,  // measure 12
0001
1000
0010
0100
0002
0000
1003
0000
,  // measure 13
0001
0010
0100
1000
2010
0000
3001
0000
,  // measure 14
1000
0100
0010
0001
0012
0000
1003
0000
,  // measure 15
0001
0010
0100
1000
0001
0100
0001
1000
,  // measure 16
0100
1000
0010
0100
0020
0000
1030
0000
,  // measure 17
0020
0000
0100
0000
0000
0100
0000
0000
0130
0000
0000
0000
2002
0000
0000
0000
,  // measure 18
3003
0000
0100
0000
0000
0100
0000
0000
0010
0000
1000
0000
0001
0000
1000
0010
,  // measure 19
0000
0000
1000
0000
0000
0100
0000
0000
0010
0000
0000
0000
0001
0000
1000
0000
,  // measure 20
0001
0100
0001
1000
0100
1000
0002
0000
,  // measure 21
0000
0000
1000
0000
0000
1000
0000
0000
1003
0000
0000
0000
0220
0000
0000
0000
,  // measure 22
0330
0000
1000
0000
0000
1000
0000
0000
0010
0000
1000
0000
0010
0000
0100
0001
,  // measure 23
0000
0000
1000
0000
0000
0100
0000
0000
0010
0000
0001
0000
1000
0000
0100
0000
,  // measure 24
1000
0010
1000
0001
0010
0001
2000
0000
,  // measure 25
3000
0000
1100
0000
0000
1100
0000
0000
1100
0000
0000
0000
1001
0000
0000
0011
,  // measure 26
0000
0000
0101
0000
0000
0101
0000
0000
0101
0000
0000
0000
0110
0000
0000
1010
,  // measure 27
0000
0000
0001
0000
0100
0000
0010
0000
1000
0000
0001
0000
0010
0000
0000
0100
,  // measure 28
0000
0010
0001
1000
0100
1000
2002
0000
,  // measure 29
3003
0000
0101
0000
0000
0011
0000
0000
0101
0000
0000
0000
0110
0000
0000
1010
,  // measure 30
0000
0000
1001
0000
0000
1010
0000
0000
0110
0000
0000
0000
0101
0000
0000
1001
,  // measure 31
0000
0000
0001
0000
0010
0000
0100
0000
1000
0000
0010
0000
0100
0000
0000
0001
,  // measure 32
0000
1000
0100
0001
0100
1000
0001
0000
,  // measure 33
1000
0100
0010
0100
1000
0010
0100
0010
,  // measure 34
1000
0001
1000
0000
0100
0000
0010
0000
0001
0000
0100
0000
0010
1000
0000
1000
,  // measure 35
0010
0100
0001
0010
0100
0010
0001
0100
,  // measure 36
0010
0100
0010
0000
1000
0000
0001
0000
0100
0000
0010
0000
1000
0100
0000
0001
,  // measure 37
0100
0010
1000
0001
0010
0100
1000
0001
,  // measure 38
0010
0001
0010
0000
0001
0000
0100
0000
0010
0000
1000
0000
0001
0100
0000
0010
,  // measure 39
1000
0100
0010
0001
0100
0010
0100
0001
,  // measure 40
1000
0001
1000
0000
0100
0000
0010
0000
0001
0000
1000
0000
0000
0000
0000
0000
,  // measure 41
0001
0000
1000
0100
0000
1000
0100
0000
0010
0000
0001
0000
1000
0000
0100
0000
,  // measure 42
0010
0000
0001
0100
0000
0001
0100
0000
0001
0000
0100
0000
0010
0000
1000
0000
,  // measure 43
0001
0000
1000
0010
0000
1000
0010
0000
1000
0000
0010
0000
0100
0000
0001
0000
,  // measure 44
1000
0001
0000
1000
0000
0001
1000
0000
0010
0000
0100
0000
0001
0000
0010
0000
,  // measure 45
0000
0011
1000
0100
1000
0010
0100
0001
,  // measure 46
0000
0101
0010
1000
0010
0100
0001
1000
,  // measure 47
1001
0010
0100
0001
1001
0010
0100
1000
,  // measure 48
0000
0010
0001
1000
0100
0010
0002
0000
,  // measure 49
2000
0000
0000
0000
,  // measure 50
3003
0000
0000
0000
;
