#TITLE:I Know You Want Me (Calle Ocho);
#SUBTITLE:;
#ARTIST:Pitbull;
#TITLETRANSLIT:;
#SUBTITLETRANSLIT:;
#ARTISTTRANSLIT:;
#GENRE:;
#CREDIT:;
#MENUCOLOR:;
#BANNER:I Know You Want Me (Calle Ocho).png;
#BACKGROUND:I Know You Want Me (Calle Ocho)-BG.png;
#LYRICSPATH:;
#CDTITLE:;
#MUSIC:I Know You Want Me (Calle Ocho).mp3;
#OFFSET:-0.060;
#SAMPLESTART:18.154;
#SAMPLELENGTH:12.000;
#SELECTABLE:YES;
#LISTSORT:;
#DISPLAYBPM:127.000;
#BPMS:0.000=127.040;
#STOPS:;
#TICKCOUNT:0.000=2;
#BGCHANGES:;
#KEYSOUNDS:;
#ATTACKS:;

//---------------dance-single - ----------------
#NOTES:
     dance-single:
     :
     Hard:
     7:
     0.493,0.568,0.232,0.042,0.232:
0000
0000
0000
0000
,
0000
0000
0000
0000
,
0000
0000
0000
0000
,
0000
0000
0000
0000
,
0101
0000
0000
0110
0000
0000
1010
0000
0000
0101
0000
0000
1001
0000
0000
0000
,
1100
0000
0000
1001
0000
0000
0011
0000
0000
1100
0000
0000
0110
0000
0000
0000
,
1010
0000
0000
0110
0000
0000
0011
0000
0000
0101
0000
0000
1100
0000
0000
0000
,
1100
0000
0000
1010
0000
0000
0011
0000
0000
0101
0000
0000
1001
0000
0000
0000
,
0010
1000
0001
0100
,
0100
0001
1000
0010
,
1000
0000
0000
0010
1000
0000
0001
0000
0100
0000
0000
0001
0100
0000
0100
0000
,
0010
0000
0000
1000
0100
0000
0010
0000
0001
0000
0000
0001
0010
0000
0001
0000
,
0100
0000
0000
1000
0010
0000
1000
0000
0100
0000
0010
0000
0001
0000
1000
0000
,
0100
0000
0000
0001
0010
0000
0001
0000
1000
0000
0010
0000
1000
0000
0001
0000
,
0100
0000
0000
0100
0010
0000
0100
0000
0001
0000
0000
0100
0010
0000
1000
0000
,
0001
0000
0000
1000
0100
0000
0010
0000
0001
0000
0000
0010
0001
0000
1000
0000
,
0100
0000
0000
1000
0100
0000
0010
0000
0001
0000
0010
0000
0001
0000
0100
0000
,
0010
0000
0000
0100
0001
0000
1000
0000
0010
0000
1000
0000
0100
0000
0010
0000
,
0001
0100
1000
0010
,
0010
1000
0100
0001
,
1000
0000
0010
0100
0010
0000
1000
0000
0001
0000
0010
0100
0010
0000
0001
0000
,
1000
0000
0100
0010
0100
0000
0001
0000
1000
0000
0100
0010
0100
0000
1000
0000
,
0001
0100
0001
1000
0100
1000
0001
1000
,
0010
1000
0001
0200
0010
0010
0310
0000
,
0010
1000
0010
0100
0010
0001
0010
0100
,
0001
0100
1000
0001
1000
0100
0001
0000
,
1000
0100
0010
0001
0010
0100
1000
0001
,
1000
0000
0100
1000
0000
0000
0001
0000
0100
0001
0000
0000
1000
0000
0001
0000
,
0110
0000
0000
0001
0100
0000
0010
0000
1000
0000
0000
0010
1000
0000
0100
0000
,
0010
0000
0000
0001
1000
0000
0100
0000
0010
0000
0000
0001
0100
0000
0001
0000
,
0010
0000
0000
0100
1000
0000
0010
0000
0100
0000
0001
0000
0100
0000
0010
0000
,
1000
0000
0000
0100
1000
0000
0100
0000
0010
0000
0100
0000
1000
0000
0001
0000
,
1000
0000
0000
0001
0100
0000
1000
0000
0010
0000
0000
0010
1000
0000
0100
0000
,
0001
0000
0000
0100
0001
0000
0100
0000
0010
0000
0000
0100
1000
0000
0010
0000
,
0001
0000
0000
0010
0001
0000
1000
0000
0100
0000
1000
0000
0010
0000
1000
0000
,
0100
0000
0000
0001
1000
0000
0100
0000
1000
0000
0001
0000
0100
0000
1000
0000
,
0010
0100
0001
1000
,
1000
0001
0100
0010
,
1000
0000
0000
1000
0000
0000
1000
0000
0000
0000
0001
0000
1000
0000
0001
0000
,
0010
0000
0000
0010
0000
0000
0010
0000
0100
0000
0000
0010
0100
0000
0010
0000
,
0100
0000
0000
0100
0000
0000
0100
0000
0000
0000
0010
0000
0100
0000
0010
0000
,
0001
0000
0000
0001
0000
0000
0001
0000
1000
0000
0000
0001
1000
0000
0001
0000
,
1000
1000
0001
0001
0010
0010
0001
0001
,
1000
0010
0001
0010
2000
0000
3010
0010
,
0100
0100
0001
0001
0010
0010
0001
0001
,
0010
0010
0100
0100
1000
0000
0001
0000
,
0010
0100
1000
0001
,
0001
1000
0100
0010
,
2002
0000
0000
0000
,
3003
0000
0000
0000
;

//---------------dance-single - STANDARD----------------
#NOTES:
     dance-single:
     STANDARD:
     Medium:
     5:
     0.340,0.361,0.063,0.179,0.137:
0000
0000
0000
0000
,
0000
0000
0000
0000
,
0000
0000
0000
0000
,
0000
0000
0000
0000
,
0001
0000
0000
0100
0000
0000
0010
0000
0000
0100
0000
0000
1000
0000
0000
0000
,
1000
0000
0000
0100
0000
0000
0010
0000
0000
0100
0000
0000
0001
0000
0000
0000
,
1000
0000
0000
0010
0000
0000
0100
0000
0000
0010
0000
0000
0001
0000
0000
0000
,
0001
0000
0000
0010
0000
0000
0100
0000
0000
0010
0000
0000
1000
0000
0000
0000
,
0010
1000
0001
0100
,
0100
0001
1000
0010
,
1000
0000
0000
0010
0000
0000
0000
0000
1000
0000
0000
0000
0100
0000
0010
0000
,
0001
0000
0000
0001
0000
0000
0000
0000
1000
0000
0000
0000
0001
0000
0100
0000
,
0020
0000
0230
0000
0320
0000
1030
0001
,
1000
0000
0000
1000
0000
0000
0000
0000
0100
0000
0000
0000
1000
0000
0100
0000
,
0001
0000
0000
0100
0000
0000
0000
0000
0010
0000
0000
0000
1000
0000
0010
0000
,
1000
0000
0000
0100
0000
0000
0000
0000
0010
0000
0000
0000
0001
0000
1000
0000
,
0002
0000
2003
0000
3002
0000
1003
0100
,
0010
0000
0000
0010
0000
0000
0000
0000
0100
0000
0000
0000
1001
0000
0000
0000
,
0001
0010
0100
1000
,
1000
0100
0010
0001
,
1000
0100
0001
0000
1000
0100
0001
0000
,
0100
1000
0010
0100
,
0010
0100
0001
0000
0010
1000
0100
0000
,
1000
0001
2002
3003
,
0100
0010
0100
0000
0010
0100
0010
0000
,
1000
0010
0001
0100
,
0020
0000
0000
0000
0000
0030
0000
0000
1000
0000
0100
0000
0001
0000
0000
0000
,
1000
0000
0000
1000
0000
0000
0001
0000
0000
0001
0000
0000
1000
0000
0000
0000
,
0001
0000
0000
0001
0000
0000
0000
0000
1000
0000
0000
0000
0010
0000
0100
0000
,
0010
0000
0000
1000
0000
0000
0000
0000
0100
0000
0000
0000
1000
0000
0001
0000
,
2000
0000
3002
0000
0203
0000
0301
1000
,
0001
0000
0000
1000
0000
0000
0000
0000
0100
0000
0000
0000
1000
0000
0100
0000
,
0010
0000
0000
0001
0000
0000
0000
0000
0100
0000
0000
0000
0010
0000
0100
0000
,
0001
0000
0000
1000
0000
0000
0000
0000
0010
0000
0000
0000
1000
0000
0100
0000
,
0020
0000
0230
0000
0320
0000
0130
1000
,
0010
0000
0000
1000
0000
0000
0000
0000
0001
0000
0000
0000
0100
0000
0000
0000
,
0001
0010
1000
0100
,
0100
1000
0010
0001
,
1000
0000
0000
1000
0000
0000
0000
0000
1000
0000
0000
0000
0110
0000
0000
0000
,
0001
0000
0000
0001
0000
0000
0000
0000
0100
0000
0000
0000
0010
0000
0000
0000
,
0100
0000
0000
0100
0000
0000
0000
0000
0010
0000
0000
0000
1001
0000
0000
0000
,
0010
0000
0000
0010
0000
0000
0000
0000
0100
0000
0000
0000
1000
0000
0000
0000
,
0001
1000
0001
1000
,
0001
0100
1000
0100
0001
0000
0100
0000
,
0010
0100
0010
0001
,
0110
1000
0100
0001
,
0010
1000
0001
0100
,
0100
0001
1000
0010
,
0220
0000
0000
0000
,
0330
0000
0000
0000
;

//---------------dance-single - LIGHT----------------
#NOTES:
     dance-single:
     LIGHT:
     Easy:
     2:
     0.197,0.253,0.021,0.053,0.000:
0000
0000
0000
0000
,
0000
0000
0000
0000
,
0000
0000
0000
0000
,
0000
0000
0000
0000
,
0001
0000
0001
0000
,
1000
0000
1000
0000
,
0001
0000
0001
0000
,
1000
0000
1000
0000
,
0001
1000
0001
1000
,
1000
0001
1000
0001
,
1000
1000
0000
0100
,
0001
0001
0000
0100
,
1000
0020
0030
0010
,
1000
0100
0000
0100
,
0010
0010
0000
0010
,
0001
0001
0000
0001
,
0100
2000
3000
1000
,
0100
0001
0000
0100
,
0001
1000
0001
1000
,
1000
0001
1000
0001
,
1000
0000
0001
0000
,
0100
0000
0001
0000
,
0010
0000
0100
0000
,
0010
0000
0110
0000
,
0010
0000
1000
0000
,
0100
0000
1000
0000
,
0001
0000
1000
0000
,
0020
0000
0030
0000
,
0001
0001
0000
1000
,
0001
0001
0000
0001
,
1000
0020
0030
0010
,
1000
0100
0000
1000
,
0100
0100
0000
0100
,
0001
0001
0000
0100
,
0010
0000
2000
0000
0000
3000
1000
0000
,
0010
0100
0000
0010
,
0001
1000
0001
1000
,
1000
0001
1000
0001
,
1000
1000
0000
0000
,
0001
0001
0000
0000
,
1000
1000
0000
0000
,
0001
0001
0000
0000
,
0001
1000
0001
1000
,
0001
0001
0100
0000
,
1000
0001
1000
0001
,
0010
0000
0000
0000
,
0010
0100
0010
0100
,
0100
0010
0100
0010
,
0110
0000
0000
0000
;

//---------------dance-single - BEGINNER----------------
#NOTES:
     dance-single:
     BEGINNER:
     Beginner:
     1:
     0.140,0.202,0.021,0.000,0.000: // measure 1
0000
0000
0000
0000
,  // measure 2
0000
0000
0000
0000
,  // measure 3
0000
0000
0000
0000
,  // measure 4
0000
0000
0000
0000
,  // measure 5
0001
0000
0000
0000
,  // measure 6
1000
0000
0000
0000
,  // measure 7
0001
0000
0000
0000
,  // measure 8
1000
0000
0000
0000
,  // measure 9
0001
0001
0001
0000
,  // measure 10
1000
1000
1000
0000
,  // measure 11
1000
1000
0000
0000
,  // measure 12
0001
0001
0000
0000
,  // measure 13
0010
0010
0000
0000
,  // measure 14
0100
0100
0000
0000
,  // measure 15
0010
0010
0000
0000
,  // measure 16
0001
0001
0000
0000
,  // measure 17
1000
1000
0000
0000
,  // measure 18
0001
0001
0000
0000
,  // measure 19
0001
0001
0001
0000
,  // measure 20
1000
1000
1000
0000
,  // measure 21
1000
0000
0001
0000
,  // measure 22
0100
0000
0001
0000
,  // measure 23
0010
0000
0100
0000
,  // measure 24
0010
0000
0110
0000
,  // measure 25
0010
0000
1000
0000
,  // measure 26
0100
0000
1000
0000
,  // measure 27
0001
0000
1000
0000
,  // measure 28
0010
0000
0000
0000
,  // measure 29
0001
0001
0000
0000
,  // measure 30
1000
1000
0000
0000
,  // measure 31
0010
0010
0000
0000
,  // measure 32
0100
0100
0000
0000
,  // measure 33
0100
0100
0000
0000
,  // measure 34
0001
0001
0000
0000
,  // measure 35
1000
1000
0000
0000
,  // measure 36
0010
0010
0000
0000
,  // measure 37
1000
1000
1000
0000
,  // measure 38
0001
0001
0001
0000
,  // measure 39
1000
1000
0000
0000
,  // measure 40
0001
0001
0000
0000
,  // measure 41
1000
1000
0000
0000
,  // measure 42
0001
0001
0000
0000
,  // measure 43
0001
0000
0001
0000
,  // measure 44
0001
0000
0100
0000
,  // measure 45
1000
0000
1000
0000
,  // measure 46
0010
0000
0000
0000
,  // measure 47
0010
0010
0010
0000
,  // measure 48
0100
0100
0100
0000
,  // measure 49
0110
0000
0000
0000
;
