#TITLE:I Gotta Feeling;
#SUBTITLE:;
#ARTIST:The Black Eyed Peas;
#TITLETRANSLIT:;
#SUBTITLETRANSLIT:;
#ARTISTTRANSLIT:;
#GENRE:;
#CREDIT:;
#MENUCOLOR:;
#BANNER:I Gotta Feeling.png;
#BACKGROUND:I Gotta Feeling-BG.png;
#LYRICSPATH:;
#CDTITLE:./CDTitle/SpyHunter29 Originals.png;
#MUSIC:I Gotta Feeling.mp3;
#OFFSET:-0.040;
#SAMPLESTART:14.069;
#SAMPLELENGTH:12.000;
#SELECTABLE:YES;
#LISTSORT:;
#BPMS:0.000=128.000;
#STOPS:124.500=0.938
,141.000=0.469
,147.000=0.938
;
#BGCHANGES:;
#ATTACKS:;

//---------------dance-single - BEGINNER----------------
#NOTES:
     dance-single:
     BEGINNER:
     Beginner:
     1:
     0.109,0.126,0.009,0.000,0.000: // measure 1
0000
0000
0000
0000
,  // measure 2
0000
0000
0000
0000
,  // measure 3
0000
0000
0000
0000
,  // measure 4
0000
0000
0000
0000
,  // measure 5
0100
0000
0000
0000
,  // measure 6
0000
0000
0000
0000
,  // measure 7
0010
0000
0000
0000
,  // measure 8
0000
0000
0000
0000
,  // measure 9
0010
0000
0000
0000
,  // measure 10
1000
0000
0000
0000
,  // measure 11
0001
0000
0001
0000
,  // measure 12
0001
0000
0000
0000
,  // measure 13
1000
0000
1000
0000
,  // measure 14
1000
0000
0000
0000
,  // measure 15
0010
0000
0010
0000
,  // measure 16
0010
0000
0000
0000
,  // measure 17
0100
0000
0000
0000
,  // measure 18
0001
0000
0000
0000
,  // measure 19
0100
0000
0100
0000
,  // measure 20
0100
0000
0000
0000
,  // measure 21
0010
0000
0010
0000
,  // measure 22
0010
0000
0000
0000
,  // measure 23
1000
0000
1000
0000
,  // measure 24
1000
0000
1000
0000
,  // measure 25
0000
0001
0001
0000
,  // measure 26
0000
1000
1000
0000
,  // measure 27
0000
0001
0001
0000
,  // measure 28
0000
0100
0100
0000
,  // measure 29
0000
0010
0010
0000
,  // measure 30
0000
1000
1000
0000
,  // measure 31
0000
0001
0001
0000
,  // measure 32
0000
0000
0000
1000
,  // measure 33
1000
0000
0000
0001
,  // measure 34
0001
0000
0000
0100
,  // measure 35
0100
0000
0000
0010
,  // measure 36
0000
0010
0010
0010
,  // measure 37
0000
0000
0100
0100
,  // measure 38
0000
0001
0000
0000
,  // measure 39
1000
0000
0000
0110
,  // measure 40
0000
1000
0000
0001
,  // measure 41
0000
1000
0000
0001
,  // measure 42
0000
0100
0000
0010
,  // measure 43
0000
0100
0000
0010
,  // measure 44
0000
1000
0000
0001
,  // measure 45
0000
1000
0000
0001
,  // measure 46
0000
0100
0000
0010
,  // measure 47
0000
0100
0000
0010
,  // measure 48
0000
0000
0000
1000
,  // measure 49
0000
0000
0000
0001
,  // measure 50
0000
1000
0000
0001
,  // measure 51
0000
0000
0000
1000
,  // measure 52
0000
1000
0000
1000
,  // measure 53
0000
0000
0000
0010
,  // measure 54
0000
0100
0000
0010
,  // measure 55
0000
0100
0000
0010
;

//---------------dance-single - BASIC----------------
#NOTES:
     dance-single:
     BASIC:
     Easy:
     3:
     0.224,0.231,0.028,0.175,0.000: // measure 1
0000
0000
0000
0000
,  // measure 2
0000
0000
0000
0000
,  // measure 3
0000
0000
0000
0000
,  // measure 4
0000
0000
0000
0000
,  // measure 5
0100
0000
0000
0000
,  // measure 6
1000
0000
0000
0000
,  // measure 7
0010
0000
0000
0000
,  // measure 8
0001
0000
0000
0000
,  // measure 9
0010
1000
0010
1000
,  // measure 10
0001
0000
1000
0000
,  // measure 11
0001
0100
0010
1000
,  // measure 12
0001
1000
0000
0100
,  // measure 13
1000
0001
0100
0001
,  // measure 14
0010
0001
0000
1000
,  // measure 15
0010
1000
0001
0100
,  // measure 16
0010
0010
0100
0000
,  // measure 17
2001
3000
0020
0030
,  // measure 18
2000
0000
3000
0000
,  // measure 19
0001
0100
0010
0100
,  // measure 20
0001
1000
0000
1000
,  // measure 21
0100
0010
0001
1000
,  // measure 22
0010
0100
0000
0100
,  // measure 23
0010
1000
0001
0100
,  // measure 24
0010
0010
0100
0000
,  // measure 25
1001
0100
1000
0000
,  // measure 26
0001
0010
0001
0000
,  // measure 27
0010
0100
0010
0000
,  // measure 28
0001
1000
0001
0000
,  // measure 29
0100
1000
0100
0000
,  // measure 30
0001
0010
0001
0000
,  // measure 31
1000
0010
0100
0001
,  // measure 32
1000
1001
0000
0001
,  // measure 33
0100
0001
0000
0010
,  // measure 34
1000
0010
0000
0001
,  // measure 35
0010
0100
0000
1000
,  // measure 36
0001
0010
0100
1000
,  // measure 37
0000
0001
1000
0100
,  // measure 38
1000
0010
0000
0000
,  // measure 39
0001
0100
0010
2000
,  // measure 40
3000
0200
0300
2000
,  // measure 41
3000
0001
1000
0002
,  // measure 42
0003
0020
0030
0002
,  // measure 43
0003
0100
0001
0020
,  // measure 44
0030
0200
0300
0020
,  // measure 45
0030
1000
0100
2000
,  // measure 46
3000
0002
0003
0020
,  // measure 47
0030
0100
1000
0020
,  // measure 48
0030
2000
3000
0002
,  // measure 49
0000
0003
0100
0001
,  // measure 50
0100
0010
1000
0001
,  // measure 51
0100
0000
1000
0010
,  // measure 52
1000
0100
0010
0001
,  // measure 53
0100
0000
1000
0010
,  // measure 54
0100
0001
1000
0010
,  // measure 55
0010
1000
0001
0200
,  // measure 56
0000
0000
0000
0300
;

//---------------dance-single - EXPERT----------------
#NOTES:
     dance-single:
     EXPERT:
     Medium:
     5:
     0.355,0.412,0.231,0.166,0.000: // measure 1
0000
0000
0000
0000
,  // measure 2
0000
0000
0000
0000
,  // measure 3
0000
0000
0000
0000
,  // measure 4
0000
0000
0000
0000
,  // measure 5
0001
1000
0001
1000
,  // measure 6
0001
0001
1000
1000
,  // measure 7
0010
0100
0010
0100
,  // measure 8
0010
0010
0100
0100
,  // measure 9
1001
0001
0010
0001
,  // measure 10
1000
0001
0100
0001
,  // measure 11
1000
0100
0010
0001
,  // measure 12
1000
0000
0100
0000
0000
0001
0100
0000
,  // measure 13
0001
0100
0010
1000
,  // measure 14
0001
0000
0010
0000
0000
0100
1000
0000
,  // measure 15
0010
0001
1000
0100
,  // measure 16
0011
0011
1100
1100
,  // measure 17
2002
0003
0020
0030
,  // measure 18
0002
0000
3003
0100
,  // measure 19
0001
0100
0010
1000
,  // measure 20
0001
0000
0100
0000
0000
0010
0100
0000
,  // measure 21
1000
0001
0100
0001
,  // measure 22
1000
0000
0010
0000
0000
0100
0001
0000
,  // measure 23
1000
0010
0100
0001
,  // measure 24
1010
1010
0101
0101
,  // measure 25
0000
0100
0001
0100
0010
0000
1000
0000
,  // measure 26
0000
0001
0010
0100
1000
0000
0001
0000
,  // measure 27
0000
0010
0100
1000
0001
0000
0100
0000
,  // measure 28
0000
0100
0001
0100
0010
0000
1000
0000
,  // measure 29
0000
0001
0010
0001
1000
0000
0001
0000
,  // measure 30
0000
1000
0100
1000
0001
0000
0100
0000
,  // measure 31
0000
0010
0100
0001
1000
0000
0010
0000
,  // measure 32
0000
1000
0001
0000
0000
0001
0100
0010
,  // measure 33
1000
0000
0001
0000
0100
0000
0010
0100
,  // measure 34
0001
0000
0100
0000
0000
0010
1000
0001
,  // measure 35
0010
0000
0100
0000
0000
1000
0100
0010
,  // measure 36
0000
0000
0001
0100
1000
0100
0001
0000
,  // measure 37
0100
0000
1000
0000
0010
1000
0100
0010
,  // measure 38
0100
1000
0010
0000
1000
0000
0000
0001
,  // measure 39
0100
0010
1000
0000
0001
0000
0102
0000
,  // measure 40
1003
0102
1003
2100
,  // measure 41
3001
0000
0100
1000
0001
0000
2010
0000
,  // measure 42
3001
2010
3001
0012
,  // measure 43
1003
0000
0100
1000
0010
0000
0210
0000
,  // measure 44
0301
0210
0301
0210
,  // measure 45
1300
0000
0100
0001
0100
0000
0120
0000
,  // measure 46
1030
0120
1030
0120
,  // measure 47
0031
0000
1000
0100
0010
0001
0010
0000
,  // measure 48
0010
1000
1000
0001
,  // measure 49
0001
0000
0100
0000
0100
0010
0000
1000
,  // measure 50
0000
0100
0000
0010
0000
0001
0000
1000
,  // measure 51
0000
0100
0000
0010
0001
0010
0000
0100
,  // measure 52
0000
1000
0000
0001
0000
0010
0000
1000
,  // measure 53
0000
0100
0000
0001
0100
0010
0000
1000
,  // measure 54
0000
0001
0000
0100
0000
1010
0000
1010
,  // measure 55
0000
0101
0000
0010
1000
0001
0200
0000
,  // measure 56
0000
0020
0000
0330
;

//---------------dance-single - EXPERT----------------
#NOTES:
     dance-single:
     EXPERT:
     Hard:
     7:
     0.414,0.389,0.166,0.129,0.000: // measure 1
0000
0000
0000
0000
,  // measure 2
0000
0000
0000
0000
,  // measure 3
0000
0000
0000
0000
,  // measure 4
0000
0000
0000
0000
,  // measure 5
1000
0001
1000
0001
,  // measure 6
1000
1000
0100
0100
,  // measure 7
0001
1000
0001
1000
,  // measure 8
0001
0000
0001
0000
0010
0100
1000
0100
,  // measure 9
0010
0011
0100
1100
,  // measure 10
0001
0000
0101
0000
1000
0010
0100
0001
,  // measure 11
0000
0010
0100
1000
0000
0001
0000
0100
,  // measure 12
0000
0010
0000
1000
0000
1000
0100
0001
,  // measure 13
0000
1000
0010
0001
0000
1000
0000
0010
,  // measure 14
0000
0100
0000
0001
0000
0100
0001
0010
,  // measure 15
0000
0100
1000
0010
0000
0100
0000
0110
,  // measure 16
0000
0110
0000
1001
0100
0010
0001
1000
,  // measure 17
0001
0101
1000
1010
,  // measure 18
0100
0000
1100
0000
0010
0001
0100
0010
,  // measure 19
0000
1000
0010
0100
0000
0001
0000
0010
,  // measure 20
0000
0100
0000
1000
0000
0001
0100
1000
,  // measure 21
0000
0001
0010
1000
0000
0001
0000
0010
,  // measure 22
0000
0001
0000
0100
0000
0001
0100
0010
,  // measure 23
0000
1000
0010
0100
0000
1000
0000
0110
,  // measure 24
0000
1001
0000
0100
0010
1000
0001
0100
,  // measure 25
0110
0001
1000
0100
2000
0000
3001
0000
,  // measure 26
1000
0100
0010
0001
0010
0000
0100
0000
,  // measure 27
0010
0100
0001
0100
0010
1000
0100
0000
,  // measure 28
1000
0100
0010
0001
0200
0000
0301
0000
,  // measure 29
0001
0100
0010
1000
0002
0000
1003
0000
,  // measure 30
0010
0001
1000
0001
0100
0000
1000
0000
,  // measure 31
0010
0100
0001
1000
0020
0000
1030
0000
,  // measure 32
0000
0000
0110
0000
0001
0100
0010
1000
,  // measure 33
0002
0000
0103
0000
1000
0000
0010
1000
,  // measure 34
0100
0000
1000
0000
0001
0100
0001
1000
,  // measure 35
0020
0000
0130
0000
0010
1000
0001
0100
,  // measure 36
0000
0000
0110
1000
0100
0010
0002
0000
,  // measure 37
1003
0000
0010
0001
1000
0001
0100
0001
,  // measure 38
0100
0010
2000
0000
3001
0000
1000
0100
,  // measure 39
0010
0001
1000
0100
0010
0001
1100
0010
,  // measure 40
0000
0001
0100
0010
0000
1000
0010
0100
,  // measure 41
0000
1000
0100
0010
0001
0010
0100
1000
,  // measure 42
0000
0001
0100
1000
0000
0001
0010
1000
,  // measure 43
0000
1000
0100
0010
0001
0010
0100
1000
,  // measure 44
0000
0010
1000
0100
0000
0010
0001
0100
,  // measure 45
0000
1000
0100
0010
0000
0001
0010
0100
,  // measure 46
0000
1000
0010
0001
0000
1000
0100
0001
,  // measure 47
0000
0100
0010
1000
0001
0100
0102
0000
,  // measure 48
1000
0020
0030
2000
,  // measure 49
3003
0000
0100
0010
1000
0100
0000
0010
,  // measure 50
0001
0100
0000
1000
0000
0010
0000
0001
,  // measure 51
0000
0100
0000
1000
0100
0001
0000
1000
,  // measure 52
0010
0001
0000
0100
0000
0001
0000
0010
,  // measure 53
0000
1000
0000
0100
1000
0010
0000
0010
,  // measure 54
0001
0100
0000
1000
0000
1010
0000
1010
,  // measure 55
0000
0001
0100
0010
1000
0001
0200
0000
,  // measure 56
0000
0020
0030
0002
,  // measure 57
0000
0303
0000
0000
;
