#TITLE:Green Light (feat. André 3000);
#SUBTITLE:;
#ARTIST:John Legend;
#TITLETRANSLIT:Green Light (feat. Andre 3000);
#SUBTITLETRANSLIT:;
#ARTISTTRANSLIT:;
#GENRE:;
#CREDIT:;
#MENUCOLOR:;
#BANNER:Green Light (feat Andre 3000).png;
#BACKGROUND:Green Light (feat Andre 3000)-BG.png;
#LYRICSPATH:;
#CDTITLE:;
#MUSIC:Green Light (feat Andre 3000).mp3;
#OFFSET:-0.864;
#SAMPLESTART:50.380;
#SAMPLELENGTH:12.000;
#SELECTABLE:YES;
#LISTSORT:;
#BPMS:0.000=155.000;
#STOPS:;
#TICKCOUNT:0.000=2;
#BGCHANGES:15.750=Stairs1.avi=1.705=1=0=1,
31.750=Geometry1.avi=0.852=0=0=1,
39.750=Heart1.avi=0.852=0=0=1,
47.750=Green1.avi=1.705=0=0=1,
51.750=Heart2.avi=1.705=0=0=1,
55.750=Vortex1.avi=1.705=0=0=1,
59.750=Heart2R.avi=1.705=0=0=1,
63.750=Snow1.avi=0.852=0=0=1,
79.750=Geometry1.avi=1.705=0=1=1,
83.750=Heart2.avi=1.705=0=1=1,
87.750=Star2.avi=1.705=0=0=1,
91.750=Heart2R.avi=1.705=0=1=1,
95.750=Snow1.avi=0.852=0=1=1,
111.750=Geometry1.avi=1.705=0=1=1,
115.750=Heart2.avi=1.705=0=1=1,
119.750=Star2.avi=1.705=0=1=1,
123.750=Heart2R.avi=1.705=0=1=1,
127.750=Wheel1.avi=0.852=0=1=1,
143.750=Geometry1.avi=1.705=0=1=1,
147.750=Heart2.avi=1.705=0=1=1,
151.750=Star2.avi=1.705=0=1=1,
155.750=Heart2R.avi=1.705=0=1=1,
159.750=Wheel1.avi=0.852=0=1=1,
175.750=Geometry1.avi=1.705=0=1=1,
179.750=Heart2.avi=1.705=0=1=1,
183.750=Star2.avi=1.705=0=1=1,
187.750=Heart2R.avi=1.705=0=1=1,
191.750=Geometry1.avi=0.852=0=1=1,
199.750=Heart1.avi=0.852=0=1=1,
207.750=Green1.avi=1.705=0=1=1,
211.750=Heart2.avi=1.705=0=1=1,
215.750=Vortex1.avi=1.705=0=1=1,
219.750=Heart2R.avi=1.705=0=1=1,
223.750=Geometry1.avi=0.852=0=1=1,
231.750=Heart1.avi=0.852=0=1=1,
239.750=Green1.avi=1.705=0=1=1,
243.750=Heart2.avi=1.705=0=1=1,
247.750=Vortex1.avi=1.705=0=1=1,
251.750=Heart2R.avi=1.705=0=1=1,
255.750=Green Light (feat Andre 3000)-BG.png=1.000=0=0=0;
#KEYSOUNDS:;
#ATTACKS:;

//---------------dance-single - HEAVY----------------
#NOTES:
     dance-single:
     HEAVY:
     Hard:
     8:
     0.606,0.627,0.275,0.285,0.123: // measure 1
0000
0000
0000
0000
,  // measure 2
0000
0000
0000
0000
,  // measure 3
0000
0000
0000
0000
,  // measure 4
0000
0000
0000
0000
,  // measure 5
0001
0010
0100
1000
0000
0001
0000
0200
,  // measure 6
0000
0000
0000
0300
,  // measure 7
1000
0010
0100
0001
0000
1000
0000
0200
,  // measure 8
0000
0000
0000
0300
,  // measure 9
1000
0000
0100
0000
0010
0000
0001
0000
0000
0000
0010
0000
0100
0000
1000
0100
,  // measure 10
1000
0100
0100
0001
0101
0000
1100
0000
,  // measure 11
0010
0000
0100
0000
0001
0000
0010
0000
0000
0000
0100
0000
1000
0000
0010
1000
,  // measure 12
0010
1000
0001
0100
0101
0000
0011
0000
,  // measure 13
0001
0000
0100
0000
0010
0000
1000
0100
1000
0000
0100
0000
0010
0000
0001
0100
,  // measure 14
0001
0000
0010
0000
0100
0000
1000
0100
0001
0000
0000
0000
1010
0000
0000
0000
,  // measure 15
0100
0000
0010
0000
1000
0000
0001
1000
0001
0000
0100
0000
0010
0000
1000
0001
,  // measure 16
1000
0000
0001
0000
0010
0000
0100
1000
0010
0000
0000
0000
0110
0000
0000
0000
,  // measure 17
0001
0100
0010
2000
0000
3010
0000
0100
,  // measure 18
1000
0100
0010
0001
0011
0000
1100
0000
,  // measure 19
1000
0001
0100
0002
0000
1003
0000
0001
,  // measure 20
0010
1000
0100
0010
0001
0000
1000
0000
,  // measure 21
0220
0000
0330
1000
0000
0001
0000
1000
,  // measure 22
0100
0100
1000
0000
0101
0000
1001
0000
,  // measure 23
2200
0000
3300
0010
0000
0001
0000
1000
,  // measure 24
0010
0010
0100
0000
1000
0100
0001
0000
,  // measure 25
0001
0100
0010
2000
0000
3010
0000
0100
,  // measure 26
1000
0001
0100
0010
1010
0000
0101
0000
,  // measure 27
1000
0100
0010
0001
0000
0001
0000
0100
,  // measure 28
0010
0100
0001
0010
0011
0000
1100
0000
,  // measure 29
2002
0000
3003
0010
0000
0100
0000
1000
,  // measure 30
0001
0001
0100
0000
1100
0000
1001
0000
,  // measure 31
0202
0000
0303
0100
0000
0001
0000
1000
,  // measure 32
0010
0000
0100
0000
0001
0000
0000
0000
0010
0000
0000
1000
0000
0000
0010
0000
,  // measure 33
1000
0000
0100
0000
0010
0000
0100
0000
1000
0000
0100
0000
0010
0000
0001
0100
,  // measure 34
0001
0000
0010
0000
0100
0000
1000
0000
0101
0000
0000
1001
0000
0000
1100
0000
,  // measure 35
1000
0000
0100
0000
1000
0000
0010
0000
0100
0000
0001
0000
0100
0000
0010
0100
,  // measure 36
0010
1000
0001
1000
0001
0100
0010
0000
,  // measure 37
0010
1000
0100
0010
0000
0001
0100
0020
,  // measure 38
0000
1030
0000
0001
0000
0100
0001
0000
,  // measure 39
1000
0010
0100
0002
0000
0103
0000
1000
,  // measure 40
0000
0000
0001
0000
0100
0000
0000
0000
1000
0000
0000
0100
0000
0000
0001
0000
,  // measure 41
0010
0000
0100
0000
1000
0000
0010
0000
0100
0000
0001
0000
0100
0000
0010
1000
,  // measure 42
0010
0000
1000
0000
0100
0000
0010
0000
0011
0000
0000
1001
0000
0000
1100
0000
,  // measure 43
0010
0000
0100
0000
1000
0000
0001
0000
0100
0000
0010
0000
0100
0000
0001
1000
,  // measure 44
0001
1000
0100
1000
0010
0100
0001
0000
,  // measure 45
0010
0100
1000
0001
0000
0010
0100
2000
,  // measure 46
0000
3100
0000
0010
0100
1000
0001
0000
,  // measure 47
0100
1000
0010
0200
0000
0301
0010
0200
,  // measure 48
0000
1300
0100
0010
0001
0100
0010
0000
,  // measure 49
1000
0000
0100
0000
0010
0000
0001
0000
0100
0000
0000
0100
0000
0000
0000
0100
,  // measure 50
0010
0000
1000
0000
0001
0000
0010
0000
0100
0000
0000
0001
0000
0000
0000
1000
,  // measure 51
0001
0100
0001
0010
1000
0100
1000
0010
,  // measure 52
0100
0000
0010
0000
0100
0000
0001
0000
0010
0000
0000
0100
0000
0000
1000
0000
,  // measure 53
0001
0100
1000
0200
0000
0301
1000
0200
,  // measure 54
0000
1300
0100
0010
0100
0001
0100
0010
,  // measure 55
0100
1000
0010
0200
0000
0301
0100
0020
,  // measure 56
0000
1030
0100
0010
0001
0001
1000
0000
,  // measure 57
1000
0000
0100
0000
1000
0000
0001
0000
0010
0000
0000
1000
0000
0000
0000
1000
,  // measure 58
0001
0000
0010
0000
0100
0000
1000
0000
0010
0000
0000
0010
0000
0000
0000
1000
,  // measure 59
0010
0100
0001
0100
0010
0100
0001
0010
,  // measure 60
0001
0000
1000
0000
0001
0000
0100
0000
0101
0000
0000
1001
0000
0000
1100
0000
,  // measure 61
0010
0100
1000
0020
0000
1030
0100
0020
,  // measure 62
0000
0031
0010
1000
0010
0001
0100
1000
,  // measure 63
0100
0001
0010
0002
0000
1003
0010
2000
,  // measure 64
0000
3010
1000
0001
0100
0010
1000
0100
,  // measure 65
2000
0000
3200
0000
,  // measure 66
0320
0000
0032
0000
,  // measure 67
0003
0000
0000
0000
;

//---------------dance-single - LIGHT----------------
#NOTES:
     dance-single:
     LIGHT:
     Easy:
     4:
     0.311,0.407,0.133,0.228,0.000:
0000
0000
0000
0000
,
0000
0000
0000
0000
,
0000
0000
0000
0000
,
0000
0000
0000
0000
,
0010
0001
0010
0001
,
0200
0000
0000
0300
,
0010
1000
0010
1000
,
0002
0000
0000
0003
,
0001
1000
0000
0001
,
0000
1000
0010
0010
,
1000
0001
0000
1000
,
0000
0001
0000
0100
,
0010
1000
0010
1000
,
0200
0300
1000
0000
,
0010
0001
0010
0001
,
0200
0300
0001
0000
,
0001
0100
1000
0000
,
1000
0001
0100
0000
,
1000
0100
0001
0000
,
1000
0001
0010
0100
,
1001
0000
0010
0010
,
1000
0100
1000
0001
,
0100
0000
0010
0010
,
0001
0100
1000
0000
,
0100
0001
0010
0000
,
0001
0100
1000
1000
,
0001
0100
1000
0000
,
0100
1000
0010
0000
,
0110
0000
0010
0100
,
0001
0001
1000
0001
,
0100
0000
1000
0100
,
0010
0001
1000
1000
,
0002
0003
2000
3000
,
0100
0000
1000
0001
,
0020
0030
0200
0300
,
1000
0000
0001
1000
,
0010
1000
0010
1000
,
0200
0300
0001
0000
,
0010
0001
0010
0001
,
0200
0300
0001
1000
,
0002
0003
0200
0300
,
0010
0000
0100
0010
,
2000
3000
0002
0003
,
0010
0000
0100
0010
,
0001
0100
1000
0100
,
0002
0003
1000
0000
,
1000
0100
0001
0100
,
2000
3000
0001
0000
,
1000
0001
1001
1001
,
0100
0010
0110
0110
,
0001
0100
1000
0100
,
0001
1000
1100
1100
,
1000
0001
0010
0001
,
2000
3000
0001
0000
,
0010
1000
0010
1000
,
0002
0003
1000
0000
,
1000
0001
0011
0011
,
0001
1000
1010
1010
,
0100
0010
1000
0010
,
0100
0001
0110
0110
,
1000
0001
0010
0001
,
2000
0000
0000
3000
0001
0000
0000
0000
,
0001
1000
0010
1000
,
0002
0003
1000
0000
,
0002
0003
0200
0300
,
0020
0030
2000
0000
,
3000
0000
0000
0000
;

//---------------dance-single - STANDARD----------------
#NOTES:
     dance-single:
     STANDARD:
     Medium:
     6:
     0.415,0.470,0.190,0.247,0.019:
0000
0000
0000
0000
,
0000
0000
0000
0000
,
0000
0000
0000
0000
,
0000
0000
0000
0000
,
0010
0100
1000
0000
0001
0000
1000
0000
,
0200
0000
0000
0300
,
0010
0100
0001
0000
1000
0000
0001
0000
,
0020
0000
0000
0030
,
1000
0000
0100
0010
0000
0001
0000
0100
,
0010
1000
0001
0001
,
1000
0000
0001
0100
0000
0001
0000
1000
,
0010
0100
0001
0001
,
1000
0001
1000
0000
0010
0000
0001
0000
,
0020
0000
0000
0030
,
0001
1000
0001
0000
0010
0000
1000
0000
,
0200
0000
0000
0300
,
1000
0010
0100
0001
,
0001
0100
0010
1000
0000
0000
0100
0000
,
1000
0001
0100
0010
,
1000
0100
0010
0001
0000
0000
0100
0000
,
2002
3003
1000
0001
,
1000
0100
1000
0000
0101
0000
1001
0000
,
2200
3300
0010
0100
,
0010
0100
0001
0000
0020
0000
0030
0000
,
0001
0010
0100
0000
1000
0000
0001
0000
,
1000
0100
0010
0001
0000
0000
1000
0000
,
0010
1000
0100
0001
,
0100
0010
1000
0100
0000
0000
0010
0000
,
2002
3003
0010
0100
,
1000
0001
1000
0000
0011
0000
0110
0000
,
2020
3030
1000
0001
,
1000
0000
0100
0000
1000
0000
0000
0000
0010
0000
0000
1000
0000
0000
0010
0000
,
1000
0100
0010
0001
,
0100
0000
0000
0000
0010
0000
0000
0000
1000
0000
0000
0001
0000
0000
0100
0000
,
0001
1000
0010
0100
,
0001
0010
0100
1000
,
0010
0100
0010
0000
1000
0000
0001
0000
,
2000
3000
0001
0010
,
0001
0100
0001
0000
1000
0000
0010
0000
,
0200
0000
0000
0000
0300
0000
0000
0000
0010
0000
0000
1000
0000
0000
0010
0000
,
1000
0100
0010
0001
,
0100
0000
0000
0000
0001
0000
0000
0000
1000
0000
0000
0001
0000
0000
0100
0000
,
0010
0100
0010
1000
,
0100
0000
0010
0000
0001
0100
1000
0000
,
0010
0100
0010
0000
1000
0000
0001
0000
,
2000
3000
0001
1000
,
0001
0100
0001
0000
1000
0000
0010
0000
,
2000
3000
0200
0300
,
0010
0100
0010
0000
1001
0000
1001
0000
,
0100
0010
0100
0000
1001
0000
1001
0000
,
0010
0100
0001
0000
0010
0100
1000
0000
,
0001
1000
0100
0000
0101
0000
1100
0000
,
1000
0100
0001
0000
1000
0000
0001
0000
,
0020
0031
1000
0010
,
0001
0100
1000
0000
0100
0000
0001
0000
,
2000
3010
0100
0001
,
0010
0001
0100
0000
0101
0000
0011
0000
,
0010
1000
0100
0000
1100
0000
1010
0000
,
0001
0100
1000
0000
1000
0100
0001
0000
,
0001
1000
0100
0000
0110
0000
0110
0000
,
1000
0010
0100
0000
0010
0000
1000
0000
,
0002
0013
1000
0100
,
0010
0001
0100
0000
0001
0000
0010
0000
,
0200
1300
0010
0100
,
0002
0000
2003
0000
,
3002
0000
0000
0000
0000
0000
0000
0000
0200
0003
0000
0000
0000
0000
0000
0000
,
0300
0000
0000
0000
;

//---------------dance-single - BEGINNER----------------
#NOTES:
     dance-single:
     BEGINNER:
     Beginner:
     2:
     0.159,0.218,0.019,0.000,0.000:
0000
0000
0000
0000
,
0000
0000
0000
0000
,
0000
0000
0000
0000
,
0000
0000
0000
0000
,
0010
0000
0010
0000
,
1000
0000
0000
0000
,
0010
0000
0010
0000
,
0001
0000
0000
0000
,
0001
0000
0000
0000
,
0001
0000
1000
0000
,
0001
0000
0000
0000
,
0001
0000
0000
0000
,
0010
0000
0010
0000
,
1000
0000
0000
0000
,
0010
0000
0010
0000
,
0001
0000
0000
0000
,
0001
0000
1000
0000
,
1000
0000
0100
0000
,
1000
0000
0001
0000
,
0001
0000
0100
0000
,
1001
0000
0000
0000
,
0010
0000
0000
0000
,
0100
0000
0000
0000
,
0010
0000
0000
0000
,
0100
0000
0010
0000
,
0010
0000
0001
0000
,
0100
0000
0010
0000
,
0010
0000
1000
0000
,
0110
0000
0000
0000
,
0001
0000
0000
0000
,
1000
0000
0000
0000
,
0001
0000
0000
0000
,
0001
0000
1000
0000
,
0100
0000
1000
0000
,
0010
0000
0100
0000
,
1000
0000
0001
0000
,
0010
0000
1000
0000
,
0100
0000
0001
0000
,
0010
0000
0001
0000
,
0100
0000
1000
0000
,
0001
0000
0100
0000
,
0010
0000
0100
0000
,
1000
0000
0001
0000
,
0010
0000
0100
0000
,
1000
0000
1000
0000
,
0001
0000
0001
0000
,
1000
0000
1000
0000
,
0001
0000
0001
0000
,
1000
1000
1000
0000
,
0001
0001
0001
0000
,
0001
0000
1000
0000
,
0100
0100
0100
0000
,
1000
0000
0001
0000
,
0010
0000
0001
0000
,
0001
0000
1000
0000
,
0010
0000
1000
0000
,
0001
0001
0001
0000
,
1000
1000
1000
0000
,
0100
0000
0010
0000
,
0100
0100
0100
0000
,
0001
0000
1000
0000
,
0010
0000
1000
0000
,
1000
0000
0001
0000
,
0010
0000
0001
0000
,
0001
0000
0100
0000
,
0010
0000
1000
0000
;
