#TITLE:Fireflies;
#SUBTITLE:;
#ARTIST:Owl City;
#TITLETRANSLIT:;
#SUBTITLETRANSLIT:;
#ARTISTTRANSLIT:;
#GENRE:;
#CREDIT:;
#MENUCOLOR:;
#BANNER:Fireflies.png;
#BACKGROUND:Fireflies-BG.png;
#LYRICSPATH:;
#CDTITLE:;
#MUSIC:Fireflies.mp3;
#OFFSET:0.000;
#SAMPLESTART:53.330;
#SAMPLELENGTH:12.000;
#SELECTABLE:YES;
#LISTSORT:;
#BPMS:0.000=90.000;
#STOPS:;
#TICKCOUNT:0.000=2;
#BGCHANGES:;
#KEYSOUNDS:;
#ATTACKS:;

//---------------dance-single - BEGINNER----------------
#NOTES:
     dance-single:
     BEGINNER:
     Beginner:
     1:
     0.083,0.090,0.010,0.000,0.000: // measure 1
0000
0000
0000
0000
,  // measure 2
0000
0000
0000
0000
,  // measure 3
0000
0000
0000
0000
,  // measure 4
0000
0000
0000
0000
,  // measure 5
0000
0000
1000
1000
,  // measure 6
0000
0000
0001
0001
,  // measure 7
0001
0000
0010
0000
,  // measure 8
0100
0000
0000
0000
,  // measure 9
0000
0000
1000
1000
,  // measure 10
0000
0000
0001
0001
,  // measure 11
0001
0000
1000
0000
,  // measure 12
0000
1001
0000
0000
,  // measure 13
0000
0000
0001
0001
,  // measure 14
0000
0000
1000
1000
,  // measure 15
1000
0000
0010
0000
,  // measure 16
0001
0000
0000
0000
,  // measure 17
0000
0000
0001
0001
,  // measure 18
0000
0000
1000
1000
,  // measure 19
1000
0000
0001
0000
,  // measure 20
1000
0000
0000
0000
,  // measure 21
0001
0000
0001
0000
,  // measure 22
0001
0000
0000
0000
,  // measure 23
0100
0000
1000
0000
,  // measure 24
0010
0000
0001
0000
,  // measure 25
0100
0000
1000
0000
,  // measure 26
0001
0000
0010
0000
,  // measure 27
0001
0000
1000
0000
,  // measure 28
0100
0000
0000
0000
,  // measure 29
0010
0000
0010
0000
,  // measure 30
0010
0000
0000
0000
,  // measure 31
1000
0000
0100
0000
,  // measure 32
0001
0000
0010
0000
,  // measure 33
1000
0000
0001
0000
,  // measure 34
1000
0000
0001
0000
,  // measure 35
0010
0000
0100
0000
,  // measure 36
0010
0000
0000
0000
,  // measure 37
0100
0000
0000
0000
;

//---------------dance-single - BASIC----------------
#NOTES:
     dance-single:
     BASIC:
     Easy:
     2:
     0.115,0.143,0.010,0.040,0.000: // measure 1
0000
0000
0000
0000
,  // measure 2
0000
0000
0000
0000
,  // measure 3
0000
0000
0000
0000
,  // measure 4
0000
0000
0000
0000
,  // measure 5
0000
0100
1000
1000
,  // measure 6
0000
0100
0001
0001
,  // measure 7
1000
0000
0010
0000
,  // measure 8
0100
0000
0000
0000
,  // measure 9
0000
0010
1000
1000
,  // measure 10
0000
0010
0001
0001
,  // measure 11
0100
0000
0001
1000
,  // measure 12
0000
1001
0000
0000
,  // measure 13
0000
0010
0001
0001
,  // measure 14
0000
0010
1000
1000
,  // measure 15
0100
0000
0010
0000
,  // measure 16
0001
0000
0000
0000
,  // measure 17
0000
0100
0001
0001
,  // measure 18
0000
0100
1000
1000
,  // measure 19
0100
0000
1000
0000
,  // measure 20
0001
0000
0000
0000
,  // measure 21
0001
1000
0001
1000
,  // measure 22
0002
0003
0000
1000
,  // measure 23
0100
0000
1000
0000
,  // measure 24
0010
0000
0001
0000
,  // measure 25
0100
0000
0001
0000
,  // measure 26
1000
0001
0100
0000
,  // measure 27
0001
0000
1000
0000
,  // measure 28
0200
0000
0300
0000
,  // measure 29
0010
0001
0010
0100
,  // measure 30
0020
0030
0000
0100
,  // measure 31
1000
0000
0100
0000
,  // measure 32
0001
0000
0010
0000
,  // measure 33
1000
0000
0001
0000
,  // measure 34
1000
0001
1000
0000
,  // measure 35
0010
0100
0010
0100
,  // measure 36
0020
0000
0030
0000
,  // measure 37
0100
0000
0000
0000
;

//---------------dance-single - DIFFICULT----------------
#NOTES:
     dance-single:
     DIFFICULT:
     Medium:
     4:
     0.222,0.233,0.060,0.209,0.000: // measure 1
0000
0000
0000
0000
,  // measure 2
0000
0000
0000
0000
,  // measure 3
0000
0000
0000
0000
,  // measure 4
0000
0000
0000
0000
,  // measure 5
0000
0000
0100
0000
1000
0001
0100
0000
,  // measure 6
0000
0000
0100
0000
0001
1000
0010
0000
,  // measure 7
0000
0000
1000
0000
0001
0000
0010
0100
,  // measure 8
1000
0000
0100
0000
0100
0000
0001
0100
,  // measure 9
1000
0000
0010
0000
1000
0001
0010
0000
,  // measure 10
0000
0000
0010
0000
0001
1000
0100
0000
,  // measure 11
1000
0000
0100
0000
0010
0001
1000
0100
,  // measure 12
0000
2002
0000
3003
,  // measure 13
0001
0000
0100
0000
0010
1000
0100
0000
,  // measure 14
1000
0000
0100
0000
0010
0001
0100
0000
,  // measure 15
0001
0000
0010
0000
1000
0000
0100
0100
,  // measure 16
0001
0000
0100
0000
1000
0000
0010
0010
,  // measure 17
1000
0000
0001
0000
0100
0010
1000
0000
,  // measure 18
0001
0000
1000
0000
0100
0010
0001
0000
,  // measure 19
0100
0001
0010
1000
,  // measure 20
0200
0310
0002
1003
,  // measure 21
0001
0010
0001
0010
,  // measure 22
0100
0000
1000
0000
0100
0000
1000
0001
,  // measure 23
2000
3000
0200
0300
,  // measure 24
0002
0003
0020
0030
,  // measure 25
1000
0000
0001
0000
0010
0001
1000
0000
,  // measure 26
1100
0001
0202
0303
,  // measure 27
0001
0000
0100
0000
0001
0100
0020
0000
,  // measure 28
2000
0000
3030
0010
,  // measure 29
1001
0000
0010
0000
0100
0000
1000
0100
,  // measure 30
0020
0000
0031
0000
0100
0000
0001
0010
,  // measure 31
0200
0300
2000
3000
,  // measure 32
0020
0030
0002
0003
,  // measure 33
0010
0000
0100
0000
0001
1000
0010
0000
,  // measure 34
1010
0001
0022
0033
,  // measure 35
0001
0000
0010
0000
0100
1000
0002
0000
,  // measure 36
0020
0000
0033
0100
,  // measure 37
1000
0000
0000
0000
;

//---------------dance-single - EXPERT----------------
#NOTES:
     dance-single:
     EXPERT:
     Hard:
     7:
     0.332,0.323,0.100,0.219,0.105: // measure 1
0000
0000
0000
0000
,  // measure 2
0000
0000
0000
0000
,  // measure 3
0000
0000
0000
0000
,  // measure 4
0000
0000
0000
0000
,  // measure 5
0001
0000
0000
0010
0000
0001
0000
1000
0100
0000
1000
0000
0001
0000
0000
0000
,  // measure 6
0100
0000
0000
0001
0000
0100
0010
0000
1000
0000
0001
0000
0010
0000
0000
0000
,  // measure 7
1000
0010
0001
0010
1000
0100
0001
0100
,  // measure 8
2000
0000
0100
0000
3001
0000
0010
0010
,  // measure 9
1000
0000
0000
0001
0000
1000
0000
0010
1000
0000
0001
0000
0100
0000
0000
0000
,  // measure 10
0001
0100
0010
1000
0010
1000
0100
0000
,  // measure 11
1000
0001
0010
0100
1000
0001
0100
0010
,  // measure 12
0000
2002
0000
3003
,  // measure 13
1001
0000
0000
0010
0000
1000
0000
0001
0100
0000
0010
0000
1000
0000
0000
0000
,  // measure 14
0100
0000
0000
1000
0000
0100
1000
0000
0001
0000
1000
0000
0010
0000
0000
0000
,  // measure 15
0100
0010
1000
0001
0010
0100
0010
0001
,  // measure 16
0200
0000
0001
0000
1300
0000
0010
0010
,  // measure 17
1000
0000
0000
0010
0000
0100
0000
0010
1000
0000
0001
0000
0010
0000
0000
0000
,  // measure 18
0001
0000
0000
0010
0000
0100
0000
0010
0001
0000
1000
0000
0100
0000
0000
0000
,  // measure 19
1000
0010
0200
0000
0301
0010
0100
1000
,  // measure 20
0020
0000
1030
0001
0020
0000
0130
0000
,  // measure 21
0110
0010
1000
0001
0010
0100
1000
0001
,  // measure 22
0200
0000
0301
0000
1000
0100
0010
0001
,  // measure 23
2000
3100
0200
0301
,  // measure 24
0002
0013
0020
1030
,  // measure 25
1000
0100
1000
0001
0010
0001
0100
0000
,  // measure 26
1010
1000
1001
0001
0202
0000
0303
0000
,  // measure 27
0001
0000
0100
0000
0001
0000
1000
0000
0010
0100
0010
0000
0000
0000
1000
0000
,  // measure 28
0200
0000
1300
0000
0010
0001
1000
0100
,  // measure 29
0110
0001
0010
0100
1000
0010
0100
0001
,  // measure 30
2000
0000
3010
0000
1000
0001
0100
0010
,  // measure 31
2000
3010
0020
0031
,  // measure 32
0002
0103
0200
1300
,  // measure 33
1000
0001
0010
0100
0010
0001
0100
0000
,  // measure 34
0101
0100
0110
0010
2010
0000
3001
0000
,  // measure 35
1000
0000
0010
0000
1000
0000
0001
0000
0010
0001
1000
0000
0000
0000
0010
0000
,  // measure 36
0200
0000
0301
0000
1000
0100
0001
0100
,  // measure 37
1000
0000
0000
0000
;
