#TITLE:Fire Burning;
#SUBTITLE:;
#ARTIST:Sean Kingston;
#TITLETRANSLIT:;
#SUBTITLETRANSLIT:;
#ARTISTTRANSLIT:;
#GENRE:;
#CREDIT:;
#MENUCOLOR:;
#BANNER:Fire Burning.png;
#BACKGROUND:Fire Burning-BG.png;
#LYRICSPATH:;
#CDTITLE:;
#MUSIC:Fire Burning.mp3;
#OFFSET:-0.983;
#SAMPLESTART:54.833;
#SAMPLELENGTH:12.000;
#SELECTABLE:YES;
#LISTSORT:;
#BPMS:0.000=123.000;
#STOPS:;
#TICKCOUNT:0.000=2;
#BGCHANGES:;
#KEYSOUNDS:;
#ATTACKS:;

//---------------dance-single - HEAVY----------------
#NOTES:
     dance-single:
     HEAVY:
     Hard:
     7:
     0.501,0.466,0.055,0.320,0.171:
0000
0000
0000
0000
,
0000
0000
0000
0000
,
0000
0000
0000
0000
,
0000
0000
0000
0000
,
0200
0320
0230
2300
,
3200
0320
0032
0203
,
0320
2030
3002
0203
,
0301
0000
0001
0000
1000
0000
1000
0000
0100
0000
0000
0100
0000
0000
0100
0000
,
0010
0000
0001
0000
0010
0000
0100
0000
1000
0000
0000
1000
0000
0000
1000
0000
,
0001
0100
0001
0000
1000
0000
0001
0000
0010
0000
0000
0010
0000
0000
0010
0000
,
1000
0000
0100
0000
0010
0000
0001
0000
0100
0000
0000
0100
0000
0000
0100
0000
,
0010
0000
0100
0000
0010
0000
1000
0000
0100
0000
0000
0100
0000
0000
0100
1000
,
0001
0000
0100
0000
0001
0000
1000
0000
0100
0000
0000
0000
0010
1000
0010
1000
,
0010
0000
1000
0100
1000
0000
0001
0000
0002
0000
0000
0000
0103
0000
0001
0000
,
1000
0001
0100
0000
0001
1000
0010
0100
,
0010
0000
1000
0000
0100
0000
0010
0000
0001
0000
0000
0001
0000
0000
0001
0000
,
0010
0001
0010
0100
0010
0000
0001
0000
0100
0000
0000
0100
0010
0000
0100
0000
,
0010
1000
0100
0010
0001
0000
0001
1000
,
0001
0100
0001
1000
0010
0100
0010
1000
,
0100
0010
0001
0100
0000
0010
1000
1000
,
0010
0000
0000
0010
1000
0000
0000
1000
0010
0000
0000
0010
1000
0000
0000
1000
,
0100
0000
0000
0100
1000
0000
0000
1000
0100
0000
0000
0100
0010
0000
0000
0010
,
0001
0000
0000
0001
0100
0000
0000
0100
0001
0000
0000
0001
1000
0000
0000
1000
,
0010
0000
0000
0010
1000
0000
0000
1000
0010
0000
0010
0000
1000
0000
0100
0000
,
1100
0000
0011
0000
1100
0000
0010
0001
,
0020
0000
0130
2000
0000
3100
0010
0001
,
0200
0000
0301
1000
0001
0100
0000
0000
,
0001
0000
1000
0000
0000
0000
1000
0000
0100
0000
0010
0000
0001
1000
0001
0000
,
0001
0000
0100
0000
0010
0000
1000
0000
0010
0000
0000
0100
0000
0000
0010
0000
,
1000
0100
0010
0001
1000
0100
0010
0001
,
0101
0000
1100
0000
0001
0100
1000
0100
,
0001
0010
0100
1000
0001
1000
0100
0010
,
0002
0000
2003
0000
3020
0000
1030
0010
,
1000
0100
0010
0001
0100
0000
0010
1000
,
0100
1000
0010
1000
0100
0010
0001
0100
,
0001
0010
0100
1000
0001
0100
1000
0100
,
0001
0001
1000
1000
0010
0010
0100
0100
,
0002
0000
2003
0000
3001
0100
1000
0100
,
0010
0010
1000
0100
0010
0010
0001
0100
,
0020
0000
2030
0000
3100
0010
0001
0100
,
0001
0001
1000
1000
0100
0010
0100
1000
,
0020
0000
0230
0000
0300
0001
0010
1000
,
0100
0100
1000
0001
0100
0100
0001
1000
,
0200
0000
0000
0000
2300
0000
0000
0000
3001
0000
0010
0000
0100
1000
0100
0000
,
0020
0032
0013
0000
;

//---------------dance-single - LIGHT----------------
#NOTES:
     dance-single:
     LIGHT:
     Easy:
     3:
     0.227,0.270,0.044,0.077,0.000: // measure 1
0000
0000
0000
0000
,  // measure 2
0000
0000
0000
0000
,  // measure 3
0000
0000
0000
0000
,  // measure 4
0000
0000
0000
0000
,  // measure 5
0001
0010
0002
0003
,  // measure 6
1000
0010
2000
3000
,  // measure 7
0002
0003
2000
3000
,  // measure 8
0200
0300
0010
0010
,  // measure 9
0001
0100
0010
0110
,  // measure 10
1000
0100
0010
0110
,  // measure 11
0010
1000
0001
1001
,  // measure 12
0100
1000
0001
1001
,  // measure 13
0001
0100
0001
0000
,  // measure 14
1000
0100
1000
0000
,  // measure 15
0001
0001
1000
0010
,  // measure 16
0002
0000
0003
0000
,  // measure 17
1000
0010
0100
0000
,  // measure 18
0001
0010
0100
0000
,  // measure 19
1000
0001
0010
0001
,  // measure 20
0200
0000
0300
0000
,  // measure 21
0010
0010
1000
1000
,  // measure 22
0001
1000
0001
0100
,  // measure 23
1000
1000
0001
0001
,  // measure 24
1000
0100
0001
0010
,  // measure 25
1000
1000
0010
0010
,  // measure 26
1000
0010
0100
0010
,  // measure 27
1000
0001
0100
0000
,  // measure 28
0001
1000
0100
0000
,  // measure 29
0010
0100
0010
0000
,  // measure 30
0010
0001
0100
0001
,  // measure 31
1000
1000
0000
0001
,  // measure 32
0000
0100
0000
0100
,  // measure 33
0010
0100
1000
0000
,  // measure 34
0010
0100
0001
0000
,  // measure 35
1000
1000
0000
0010
,  // measure 36
0000
0001
0000
0100
,  // measure 37
0010
1000
0010
1000
,  // measure 38
0010
0001
0000
0100
,  // measure 39
0001
0100
0001
0100
,  // measure 40
1000
1000
0000
0100
,  // measure 41
0010
0001
0010
0001
,  // measure 42
0100
0100
0000
0010
,  // measure 43
1000
0100
1000
0100
,  // measure 44
0010
0010
0000
0100
,  // measure 45
0001
0001
0001
0000
;

//---------------dance-single - STANDARD----------------
#NOTES:
     dance-single:
     STANDARD:
     Medium:
     6:
     0.413,0.417,0.331,0.221,0.033:
0000
0000
0000
0000
,
0000
0000
0000
0000
,
0000
0000
0000
0000
,
0000
0000
0000
0000
,
0002
1003
0002
0103
,
2000
3001
2000
3100
,
0002
0103
0020
1030
,
0100
0000
0000
0000
0010
0000
0000
0000
0001
0000
0000
0001
0000
0000
0001
0000
,
0010
0000
0100
0000
1000
0000
0000
0000
0001
0000
0000
0001
0000
0000
0001
0000
,
1000
0000
0010
0000
1000
0000
0000
0000
0100
0000
0000
0100
0000
0000
0100
0000
,
0001
0000
1000
0000
0100
0000
0000
0000
0001
0000
0000
0001
0000
0000
0001
0000
,
0010
0100
0010
0001
1000
0000
0001
0000
,
1000
0100
1000
0001
0100
0000
0100
0000
,
0001
0100
0001
1000
0100
0000
1000
0000
,
0001
0100
1000
0000
1000
0100
0001
0000
,
0010
0000
0000
0000
0100
0000
0000
0000
0010
0000
0000
0010
0000
0000
0010
0000
,
1000
0010
1000
0100
0010
0000
0001
0000
,
0001
0010
0001
0100
0010
0000
1000
0000
,
0001
0100
1000
0000
1000
0100
0001
0000
,
0001
0000
0100
0000
0010
0000
0000
0000
1000
0000
0000
1000
0000
0000
1000
0000
,
1010
1010
0011
0011
,
2000
0000
3002
0100
0003
1000
0100
0000
,
0101
0101
1100
1100
,
0002
0000
2003
0100
3000
0001
0010
0000
,
0011
1100
1010
0101
,
0020
0000
0230
0010
0300
1000
0001
0000
,
0110
0000
0001
0010
0100
1000
0000
0000
,
0010
1000
0000
0001
0100
0001
1000
0000
,
1001
0110
2002
3003
,
0010
1000
0010
0000
0100
0001
0100
0000
,
0102
0000
1003
0000
0001
0100
1000
0000
,
2100
0000
3001
0000
1000
0100
0010
0000
,
0102
0010
0100
1003
,
2100
0010
0100
3001
,
0110
0000
0110
0000
0010
0100
0010
1000
,
0001
0000
0010
0000
1000
0100
0010
0000
,
0001
0100
1000
0000
0001
0100
1000
0000
,
0101
0000
1100
0000
1000
0100
0010
0000
,
1000
0100
0001
0000
1000
0100
0001
0000
,
1100
0000
0101
0000
0001
0100
0010
0000
,
0001
0010
1000
0000
0001
0010
1000
0000
,
0011
0000
1010
0000
0010
1000
0100
0000
,
1000
0010
0001
0000
1000
0010
0001
0000
,
1010
0000
0011
0000
0001
0010
0100
1000
,
0002
2003
3001
0000
;

//---------------dance-single - BEGINNER----------------
#NOTES:
     dance-single:
     BEGINNER:
     Beginner:
     2:
     0.148,0.172,0.000,0.000,0.000: // measure 1
0000
0000
0000
0000
,  // measure 2
0000
0000
0000
0000
,  // measure 3
0000
0000
0000
0000
,  // measure 4
0000
0000
0000
0000
,  // measure 5
0001
0000
0001
0000
,  // measure 6
1000
0000
1000
0000
,  // measure 7
0001
0000
1000
0000
,  // measure 8
0100
0000
0010
0000
,  // measure 9
0001
0000
0000
1000
,  // measure 10
1000
0000
0000
0010
,  // measure 11
0010
0000
0000
0100
,  // measure 12
0100
0000
0000
0001
,  // measure 13
0001
0000
0001
0000
,  // measure 14
1000
0000
1000
0000
,  // measure 15
0001
0000
1000
0000
,  // measure 16
0100
0000
0000
0000
,  // measure 17
1000
0000
0100
0000
,  // measure 18
0001
0000
0100
0000
,  // measure 19
1000
0000
0001
0000
,  // measure 20
0010
0000
0000
0000
,  // measure 21
0010
0010
0010
0000
,  // measure 22
0001
0001
0001
0000
,  // measure 23
1000
1000
1000
0000
,  // measure 24
0100
0100
0100
0000
,  // measure 25
1000
1000
1000
0000
,  // measure 26
0010
0010
0010
0000
,  // measure 27
0001
0001
0001
0000
,  // measure 28
0100
0100
0100
0000
,  // measure 29
0010
0010
0010
0000
,  // measure 30
0010
0000
0100
0000
,  // measure 31
1000
1000
0000
0001
,  // measure 32
0001
0000
0000
0000
,  // measure 33
0010
0000
1000
0000
,  // measure 34
0010
0000
0001
0000
,  // measure 35
1000
1000
0000
0010
,  // measure 36
0000
0001
0000
0000
,  // measure 37
0010
0010
0010
0000
,  // measure 38
0001
0001
0000
0000
,  // measure 39
0100
0100
0100
0000
,  // measure 40
1000
1000
0000
0000
,  // measure 41
0001
0001
0001
0000
,  // measure 42
0100
0100
0000
0000
,  // measure 43
1000
1000
1000
0000
,  // measure 44
0010
0010
0000
0000
,  // measure 45
0001
0001
0001
0000
;
