#TITLE:Everybody (Backstreet's Back);
#SUBTITLE:;
#ARTIST:Backstreet Boys;
#TITLETRANSLIT:;
#SUBTITLETRANSLIT:;
#ARTISTTRANSLIT:;
#GENRE:;
#CREDIT:;
#MENUCOLOR:;
#BANNER:Everybody (Backstreet's Back).png;
#BACKGROUND:Everybody (Backstreet's Back)-BG.png;
#LYRICSPATH:;
#CDTITLE:./CDTitles/SpyHunter29 Originals.png;
#MUSIC:Everybody (Backstreet's Back).mp3;
#OFFSET:-0.040;
#SAMPLESTART:52.755;
#SAMPLELENGTH:12.000;
#SELECTABLE:YES;
#LISTSORT:;
#BPMS:0.000=108.000;
#STOPS:32.000=1.667
;
#TICKCOUNT:0.000=2;
#BGCHANGES:-0.250=Everybody (Backstreet's Back).avi=1.000=0=0=0,
99999=-nosongbg-=1.000=0=0=0 // don't automatically add -songbackground-
;
#KEYSOUNDS:;
#ATTACKS:;

//---------------dance-single - BEGINNER----------------
#NOTES:
     dance-single:
     BEGINNER:
     Beginner:
     1:
     0.117,0.126,0.032,0.117,0.000:
0000
0000
0000
0000
,
0000
0000
0000
0000
,
0000
0000
0000
0000
,
0000
0000
0000
0000
,
0001
0000
1000
0000
,
0001
0000
0001
0000
,
1000
0000
0001
0000
,
1000
0000
1000
0000
,
0001
0000
0000
0000
,
0000
0001
0001
0001
,
0001
0000
0000
0000
,
0000
1000
1000
1000
,
1000
0000
0000
0000
,
0000
1000
1000
1000
,
1000
0000
0000
0000
,
0000
0010
0010
0010
,
0000
0020
0000
0030
,
0000
0100
0100
0100
,
0000
0200
0000
0300
,
0000
0010
0010
0010
,
0000
0020
0000
0030
,
0000
0100
0000
0010
,
0000
0100
0100
0100
,
0000
1000
0000
1000
,
0000
2000
0000
3000
,
0000
0001
0000
0001
,
0000
0002
0000
0003
,
0000
1000
0000
0100
,
0000
0001
0000
0010
,
0000
1000
0000
0010
,
0000
0001
0000
0100
,
0000
2000
3000
0000
,
0000
0002
0003
0000
,
0000
2000
3000
0000
,
0000
0001
0000
1000
,
0000
0200
0300
0000
,
0000
0020
0030
0000
,
0000
0200
0300
0000
,
0000
1001
0000
1001
,
0000
1001
0000
0000
;

//---------------dance-single - BASIC----------------
#NOTES:
     dance-single:
     BASIC:
     Easy:
     2:
     0.158,0.167,0.053,0.139,0.000:
0000
0000
0000
0000
,
0000
0000
0000
0000
,
0000
0000
0000
0000
,
0000
0000
0000
0000
,
0001
1000
0001
1000
,
0002
0003
0100
0000
,
1000
0001
1000
0001
,
2000
3000
0100
0000
,
0001
0000
0000
0000
,
0000
1000
0001
0100
,
0010
0000
0000
0000
,
0000
1000
0001
0010
,
0100
0000
0000
0000
,
0000
1000
0010
0100
,
0001
0000
0000
0000
,
0000
1000
1000
1000
,
0000
0200
0300
0010
,
0000
0001
0001
0001
,
0000
0020
0030
0100
,
0000
1000
0001
1000
,
0000
0002
0003
1000
,
0000
0010
0000
0100
,
0000
0010
0100
0010
,
0100
1002
0003
0100
,
0000
2000
3000
0100
,
0000
0002
0003
0010
,
0000
0200
0300
1000
,
0000
0010
1000
0100
,
0000
0010
0001
0100
,
0000
0010
1000
0001
,
0000
0010
0001
1000
,
0000
2001
3000
0001
,
0000
0020
0030
0100
,
0000
2000
3000
0010
,
0000
0200
0300
0001
,
0000
1000
0100
0010
,
0000
0001
0100
0010
,
0000
1000
0100
0001
,
0000
1001
0000
1001
,
0000
0110
0000
0000
;

//---------------dance-single - DIFFICULT----------------
#NOTES:
     dance-single:
     DIFFICULT:
     Medium:
     4:
     0.251,0.293,0.117,0.245,0.016: // measure 1
0000
0000
0000
0000
,  // measure 2
0000
0000
0000
0000
,  // measure 3
0000
0000
0000
0000
,  // measure 4
0000
0000
0000
0000
,  // measure 5
0001
1000
0001
0100
,  // measure 6
0002
0003
0200
0300
,  // measure 7
0010
1000
0010
1000
,  // measure 8
0200
0300
2000
3000
,  // measure 9
0001
2000
3000
0002
,  // measure 10
0003
0000
1000
0000
0100
0000
1000
0001
,  // measure 11
1000
0020
0030
0200
,  // measure 12
0300
0000
0010
0000
0100
0000
0001
1000
,  // measure 13
0001
2000
3000
0200
,  // measure 14
0300
0000
1000
0000
0010
0000
0100
0001
,  // measure 15
0100
0002
0003
0010
,  // measure 16
0100
0000
0000
0000
1000
0000
0000
1000
0000
0000
1000
0000
0000
0000
0000
0000
,  // measure 17
0100
0020
0030
0002
,  // measure 18
0003
0000
0000
0000
0100
0000
0000
0100
0000
0000
0100
0000
0000
0000
0000
0000
,  // measure 19
0010
2000
3000
0200
,  // measure 20
0300
0000
0000
0000
0001
0000
0000
0001
0000
0000
0001
0000
0000
0000
0000
0000
,  // measure 21
0100
2000
3000
0001
,  // measure 22
0100
1000
0010
0001
,  // measure 23
0100
1001
1001
0110
,  // measure 24
0110
1001
0001
0100
,  // measure 25
0010
2000
3100
0001
,  // measure 26
0010
0100
0010
0000
0001
0000
1000
0000
,  // measure 27
0010
0200
0301
0010
,  // measure 28
1000
0002
0100
1003
,  // measure 29
0000
1000
0100
0001
,  // measure 30
0010
1000
0010
0001
,  // measure 31
0100
1000
1000
0001
,  // measure 32
0001
0120
1030
0001
,  // measure 33
0100
0002
0103
1000
,  // measure 34
0100
0120
0031
1000
,  // measure 35
0100
0000
1000
0001
1000
0000
0001
1000
,  // measure 36
0001
0120
1030
0001
,  // measure 37
0010
0001
0100
1000
,  // measure 38
0010
0001
0010
1000
,  // measure 39
0100
0110
0100
0110
,  // measure 40
0010
1001
0000
0000
;

//---------------dance-single - EXPERT----------------
#NOTES:
     dance-single:
     EXPERT:
     Hard:
     6:
     0.363,0.439,0.128,0.192,0.085:
0000
0000
0000
0000
,
0000
0000
0000
0000
,
0000
0000
0000
0000
,
0000
0000
0000
0000
,
0010
0000
0010
0001
1000
0001
0100
0000
,
1000
0000
0001
1000
0100
0000
0000
0000
,
1000
0000
1000
0100
1000
0001
0010
0000
,
0001
0000
1000
0001
0010
0000
0000
0000
,
0100
2000
3100
0002
,
0103
0000
0000
0000
1000
0000
0100
1000
0000
0000
0001
0000
0100
0000
0001
1000
,
0000
0001
0020
0000
1030
0000
0020
0000
,
0031
0000
0000
0000
0010
0000
0100
0001
0000
0000
1000
0000
0001
0000
0100
0010
,
0000
0100
0002
0000
0103
0000
2000
0000
,
3010
0000
0000
0000
1000
0000
0001
0100
0000
0000
0010
0000
1000
0000
0001
0100
,
0000
1000
0020
0000
1030
0000
0100
1000
,
0010
0000
1000
0000
0100
0000
0000
0100
0000
0000
0100
0000
0000
0000
0010
0000
,
0001
0000
2000
0000
3010
0000
0001
0100
,
0010
0000
1000
0000
0001
0000
0000
0001
0000
0000
0001
0000
0000
0000
0010
0000
,
0100
0000
0020
0000
0130
1000
0000
0001
,
0000
0100
0000
0000
1000
0000
0000
1000
0000
0000
1000
0000
0000
0000
0100
0000
,
0010
0002
1003
0100
,
1000
0001
1000
0100
0010
0001
0010
0001
,
1000
0100
1001
1001
1010
1010
0110
0000
,
0010
1000
1001
0000
0010
1000
0100
0010
,
0001
0000
2000
0000
3100
0010
0002
0000
,
0103
0010
1000
0000
0001
0100
0010
1000
,
0100
0000
0020
0000
0130
1000
0020
0000
,
0130
0001
0010
0000
0001
0010
1000
0010
,
0001
0101
0011
1010
,
1100
0020
0031
0200
,
1300
0200
0301
1000
,
0010
0000
0100
0000
0010
0000
1000
0010
0000
0000
1000
0000
0100
0000
0010
0000
,
0001
0000
0000
0000
1000
0000
0001
0010
0000
0000
0001
0000
0100
0000
0010
0000
,
1000
0000
0001
0000
0100
0000
0001
0100
0000
0000
0010
0000
1000
0000
0001
0000
,
0100
0000
1000
0100
0001
0100
1000
0100
,
0001
0000
0000
0000
0100
0000
0010
0001
0000
0000
1000
0000
0100
0000
1000
0000
,
0010
0000
0100
0000
0001
0000
1000
0001
0000
0000
0100
0000
0001
0000
1000
0000
,
0001
0000
0000
0000
0100
0000
0010
0100
0000
0000
0010
0000
1000
0000
0001
0000
,
0100
1001
0100
0110
,
0020
0100
0030
0000
0000
0000
0000
0000
;
