#TITLE:Drown in the Now (featuring Matisyahu);
#SUBTITLE:;
#ARTIST:The Crystal Method;
#TITLETRANSLIT:;
#SUBTITLETRANSLIT:;
#ARTISTTRANSLIT:;
#GENRE:;
#CREDIT:;
#MENUCOLOR:;
#BANNER:Drown in the Now (featuring Matisyahu).png;
#BACKGROUND:Drown in the Now (featuring Matisyahu)-BG.png;
#LYRICSPATH:;
#CDTITLE:;
#MUSIC:Drown in the Now (featuring Matisyahu).mp3;
#OFFSET:-0.673;
#SAMPLESTART:18.933;
#SAMPLELENGTH:12.000;
#SELECTABLE:YES;
#LISTSORT:;
#DISPLAYBPM:105.000;
#BPMS:0.000=105.000;
#STOPS:;
#TICKCOUNT:0.000=2;
#BGCHANGES:;
#KEYSOUNDS:;
#ATTACKS:;

//---------------dance-single - HEAVY----------------
#NOTES:
     dance-single:
     HEAVY:
     Hard:
     7:
     0.471,0.454,0.187,0.098,0.158: // measure 1
0000
0000
0000
0000
,  // measure 2
0000
0000
0000
0000
,  // measure 3
0000
0000
0000
0000
,  // measure 4
0000
0000
0000
0000
,  // measure 5
0100
0000
0010
0000
0100
0000
0001
0000
0010
0100
0010
0000
0001
0000
1000
0000
,  // measure 6
0100
0000
1000
0000
0100
0000
0001
0000
0100
0000
0001
0100
1000
0000
0000
0000
,  // measure 7
0100
0000
0001
0000
0010
0000
0100
0000
1000
0001
1000
0000
0100
0000
0010
0000
,  // measure 8
0001
0000
0010
0000
0001
0000
0100
0000
0010
1000
0000
0001
0000
1000
0100
0000
,  // measure 9
0010
0000
0001
0000
0100
0010
1000
0000
0000
0000
0001
0000
0100
0000
1000
0000
,  // measure 10
0001
0000
0010
0000
1000
0100
0010
0000
0001
0000
0010
0000
0100
0000
0000
0000
,  // measure 11
0001
0000
0010
0000
0100
1000
0010
0000
0000
0000
1000
0000
0001
0000
0100
0000
,  // measure 12
0010
0000
1000
0000
0001
0100
0010
0000
1000
0000
0001
0000
0100
0000
0000
0000
,  // measure 13
0010
0000
0100
0000
0001
0010
0100
0000
0000
0000
0010
0000
0100
0000
1000
0000
,  // measure 14
0001
0000
0100
0000
1000
0100
0001
0000
1000
0000
0001
0000
0010
0000
0000
0000
,  // measure 15
1000
0000
0010
0000
1000
0100
0010
0000
0000
0000
0010
0000
0100
0000
0001
0000
,  // measure 16
0100
1000
0100
0001
1000
0001
1001
0000
,  // measure 17
1000
0100
1000
0100
0010
0000
0001
0100
,  // measure 18
0010
0001
0100
1000
0001
0010
1000
0100
,  // measure 19
0010
0001
1000
0100
0020
0000
0031
0010
,  // measure 20
0001
0000
0100
0000
0010
0000
1000
0000
0010
1000
0000
0001
0000
1000
0100
0000
,  // measure 21
0010
0001
0100
0001
0010
1000
0100
1000
,  // measure 22
0010
0000
1000
0000
0001
0100
1000
0000
0200
0000
0000
0000
1300
0000
1000
0000
,  // measure 23
0001
0010
0001
0100
0001
0000
1000
0010
,  // measure 24
1010
0000
0001
0010
0011
0000
1100
0000
,  // measure 25
0011
0000
1000
0000
0100
0000
0010
0000
0001
0000
0100
0000
0010
1000
0010
0000
,  // measure 26
0100
0010
1000
0100
0010
0001
0100
0000
,  // measure 27
0100
0000
0001
0000
0010
0000
0001
0000
0100
0000
0001
1000
0001
0000
0010
0000
,  // measure 28
1000
0100
0010
0001
0100
0100
0010
0000
,  // measure 29
0110
0000
0001
0000
0100
0000
0010
0000
1000
0001
0100
0000
0010
0000
0001
0000
,  // measure 30
0100
0000
1000
0000
0100
0000
0001
0100
1000
0000
1000
0100
0001
0000
0000
0000
,  // measure 31
0100
0001
0010
0100
1000
0010
0100
1000
,  // measure 32
0010
0100
0001
0010
1000
0100
0001
0000
,  // measure 33
0110
0000
0001
0000
0010
0000
0100
0000
1000
0010
0001
0000
1000
0000
0001
0000
,  // measure 34
0100
0000
1000
0000
0100
0000
0001
0100
0001
0000
1000
0100
1000
0000
0000
0000
,  // measure 35
1001
0000
0100
0000
0010
0000
0100
0000
0001
0010
1000
0000
0010
0000
0001
0000
,  // measure 36
0010
0000
0100
0000
1000
0000
0001
0000
0010
0001
0000
1000
0000
0001
0100
0000
,  // measure 37
0010
0000
0102
0000
2003
0000
3001
1000
,  // measure 38
0100
0001
0100
1000
0100
0000
0001
1000
,  // measure 39
0220
0000
0330
1000
0010
0001
0010
1000
,  // measure 40
1100
0000
0000
0000
1001
0000
0000
0000
0011
0000
0000
0000
0010
0001
0010
0000
,  // measure 41
0101
0000
2010
0000
3002
0000
1003
0001
,  // measure 42
0100
1000
0100
0001
0010
0000
1000
0010
,  // measure 43
0220
0000
0330
1000
0010
0100
0001
1000
,  // measure 44
1010
0000
0000
0000
1001
0000
0000
0000
0101
0000
0000
1000
0000
0100
1000
0000
;

//---------------dance-single - LIGHT----------------
#NOTES:
     dance-single:
     LIGHT:
     Easy:
     4:
     0.277,0.259,0.059,0.059,0.000: // measure 1
0000
0000
0000
0000
,  // measure 2
0000
0000
0000
0000
,  // measure 3
0000
0000
0000
0000
,  // measure 4
0000
0000
0000
0000
,  // measure 5
0001
0000
1000
0000
0001
0100
0001
0000
,  // measure 6
0010
0000
1000
0000
0010
1000
0100
0000
,  // measure 7
1000
0000
0001
0000
1000
0100
1000
0000
,  // measure 8
0010
0000
1000
0000
0010
0001
0100
0000
,  // measure 9
0001
0000
0010
0000
1000
0100
0010
0000
,  // measure 10
0001
0000
0001
0000
0001
1000
0100
0000
,  // measure 11
0010
0000
0001
0000
0100
0010
0100
0000
,  // measure 12
1000
0000
1000
0000
0100
0001
0010
0000
,  // measure 13
0001
0000
0010
0000
0001
0100
0010
0000
,  // measure 14
0100
0000
0100
0000
1000
0100
0001
0000
,  // measure 15
0010
0000
0001
0000
1000
0001
0100
0000
,  // measure 16
0010
0000
0010
0000
0001
0010
1000
0000
,  // measure 17
1000
0000
0101
0000
,  // measure 18
1100
0001
0010
0001
,  // measure 19
1000
0100
0010
0001
0010
0000
0000
0000
,  // measure 20
0001
0001
1000
1001
,  // measure 21
0010
0010
0100
0100
,  // measure 22
0010
0100
0001
0100
0010
0000
1000
0000
,  // measure 23
0001
0100
1000
0000
0100
0000
0001
0000
,  // measure 24
0010
1000
0100
1001
,  // measure 25
1000
0100
0001
0000
1000
0100
0001
0000
,  // measure 26
0010
0000
0010
0000
0100
0010
0100
0000
,  // measure 27
1000
0000
0010
0000
1000
0001
0001
0000
,  // measure 28
0010
0000
0100
0000
0001
1000
1000
0000
,  // measure 29
1001
0000
0100
0000
1000
0100
0001
0000
,  // measure 30
0010
0000
0010
0000
1000
0010
0001
0000
,  // measure 31
1000
0100
0001
0100
,  // measure 32
0100
0001
0100
1000
,  // measure 33
0010
0000
0100
0000
0010
0100
0010
0000
,  // measure 34
1000
0000
1000
0000
1000
0010
0001
0000
,  // measure 35
0010
0000
0100
0000
0010
0100
0010
0000
,  // measure 36
0001
0000
0001
0000
0001
0010
1000
0000
,  // measure 37
0000
0002
0200
0303
,  // measure 38
0010
0000
1000
0000
0100
0000
1000
0100
,  // measure 39
0002
0000
0003
0000
1000
0100
1000
0000
,  // measure 40
0010
0100
0010
0100
,  // measure 41
1001
0200
0020
0330
,  // measure 42
1000
0000
0001
0000
0010
0000
1000
0010
,  // measure 43
0200
0000
0300
0000
0001
0100
1000
0000
,  // measure 44
0100
0000
0001
0000
0010
0000
1000
0001
;

//---------------dance-single - STANDARD----------------
#NOTES:
     dance-single:
     STANDARD:
     Medium:
     6:
     0.343,0.367,0.236,0.069,0.010: // measure 1
0000
0000
0000
0000
,  // measure 2
0000
0000
0000
0000
,  // measure 3
0000
0000
0000
0000
,  // measure 4
0000
0000
0000
0000
,  // measure 5
0010
0000
0100
0000
1000
0010
1000
0100
,  // measure 6
0010
0000
0010
0000
1000
0100
0001
0000
,  // measure 7
0100
0000
1000
0000
0100
0010
0100
0001
,  // measure 8
0010
0000
0000
0000
0010
0000
0000
0000
0001
1000
0000
1000
0000
0000
0000
0000
,  // measure 9
1001
0100
0001
0100
0000
0010
1000
0000
,  // measure 10
0001
0100
0001
0000
0001
0100
1000
0000
,  // measure 11
1001
0100
0010
0001
0000
0100
0010
0000
,  // measure 12
1000
0100
1000
0000
1000
0100
0001
0000
,  // measure 13
0110
0001
0100
0010
0000
1000
0100
0000
,  // measure 14
1000
0100
1000
0000
0001
0100
0001
0000
,  // measure 15
1001
0100
0001
0010
0000
1000
0001
0000
,  // measure 16
1000
0010
1000
0000
0001
0010
0001
0000
,  // measure 17
1001
0000
1000
0100
1000
0000
1000
0100
,  // measure 18
0001
0000
1000
0100
0001
0100
1000
0100
,  // measure 19
0010
0000
0001
0000
0100
0000
0010
0100
,  // measure 20
0001
0100
0010
0000
1000
0001
0100
0000
,  // measure 21
1001
0101
1001
0110
,  // measure 22
1000
0100
0010
0001
0100
0000
0010
0100
,  // measure 23
0010
0000
1000
0000
0100
0000
0001
0100
,  // measure 24
1000
0000
1000
0100
0002
0000
0003
0000
,  // measure 25
0010
1000
0100
0001
,  // measure 26
1000
0100
1000
0000
0001
0010
0001
0000
,  // measure 27
0100
0000
0010
0000
0100
0010
1001
0000
,  // measure 28
0010
0000
0100
0000
0010
0000
0100
0100
,  // measure 29
1001
0000
0100
0000
0001
0100
0010
1000
,  // measure 30
0010
0000
1000
0000
1000
0100
0001
0000
,  // measure 31
0101
0101
1100
1100
,  // measure 32
0001
0100
1000
0100
0001
1000
0001
0000
,  // measure 33
1001
0000
0010
0000
0001
0010
0100
1000
,  // measure 34
0010
0000
0010
0000
1000
0100
0001
0000
,  // measure 35
0010
0000
0100
0000
0010
0001
1000
0100
,  // measure 36
0010
0000
0010
0000
1000
0010
0001
0000
,  // measure 37
1000
0000
0200
0000
2000
0000
3300
0010
,  // measure 38
0000
0001
0000
1000
0100
0000
1000
0001
,  // measure 39
0200
0000
0300
0000
0100
0001
1000
0000
,  // measure 40
1100
1100
0011
0011
,  // measure 41
1001
0000
0000
0000
0200
0000
0000
0000
0020
0000
0000
0030
0300
0000
1000
0000
,  // measure 42
0000
0001
0000
1000
0010
0000
1000
0001
,  // measure 43
0020
0000
0030
0000
0010
0001
1000
0000
,  // measure 44
0101
0000
0101
0000
1010
0000
0010
1000
;

//---------------dance-single - CHALLENGE----------------
#NOTES:
     dance-single:
     CHALLENGE:
     Challenge:
     9:
     0.549,0.540,0.030,0.246,0.404:
0000
0000
0000
0000
,
0000
0000
0000
0000
,
0000
0000
0000
0000
,
0000
0000
0000
0000
,
0010
0000
0001
0100
0001
0100
0001
1000
0001
1000
0010
0000
0100
0000
0010
0000
,
1000
0000
0100
0000
0010
0000
0001
0100
0001
0000
1000
0100
2000
0000
0000
0000
,
3001
0000
1000
0100
1000
0100
0010
0001
0010
0001
0010
0000
0001
0000
1000
0000
,
1000
0000
0001
0000
0001
0000
1000
0001
0010
0001
0000
1000
0000
0001
0100
0000
,
0010
0000
1000
0100
1000
0100
0010
0001
0010
0001
0010
0000
0001
0000
0100
0000
,
0010
0000
1000
0000
0001
0000
1000
0100
0010
0000
0001
1000
0200
0000
0000
0000
,
1300
0000
0010
1000
0010
0100
0010
1000
0100
0010
0001
0000
0100
0000
0001
0000
,
0010
0000
0100
0000
1000
0000
0100
1000
0001
0000
1000
0001
0200
0000
0000
0000
,
0310
0000
1000
0010
1000
0010
0100
0001
0100
0001
0010
0000
0100
0000
0010
0000
,
0100
0000
1000
0000
0001
0000
1000
0100
0010
0000
0001
0100
0020
0000
0000
0000
,
1030
0000
0001
0100
0001
1000
0010
0100
0010
1000
0100
0000
0010
0000
0100
0000
,
1000
0000
0010
0000
0001
0000
0100
0001
0010
0000
0010
1000
0200
0000
0000
0000
,
1300
0000
0001
0000
1000
0100
1000
0100
1000
0000
0000
0000
0001
0100
0001
0100
,
0001
0000
0010
0000
0100
0000
0010
0000
0001
0100
0010
1000
0100
0000
1000
0001
,
0010
0001
0100
0001
0020
0000
0130
1000
,
0010
0000
1000
0100
0010
0000
0000
0000
0001
1000
0000
0001
0000
0100
0010
0000
,
1000
0100
0010
0001
0010
0100
1000
0010
,
0100
0000
0001
0000
0010
0100
1000
0000
0002
0000
0000
0000
1003
0100
1000
0000
,
0001
0000
0010
0000
0001
0100
0001
0000
1000
0000
0000
0000
0010
0000
0100
0000
,
0010
0000
0010
0100
0020
0000
1030
0000
,
0100
0000
0010
0000
0001
0000
0100
0000
0010
1000
0010
0000
0001
0100
0001
0000
,
0100
0000
1000
0000
0001
0000
0010
0000
0001
0100
0001
0000
0010
0000
0000
0000
,
0010
0000
1000
0000
0100
0000
0010
0000
0001
0000
0100
0001
0100
0000
0100
0000
,
0010
0000
0001
0100
0001
0000
1000
0100
1000
0000
0001
0000
1000
0000
0000
0000
,
0110
0000
0001
0010
0001
0010
0001
0100
0001
0100
0001
0000
0100
0000
1000
0000
,
0100
0000
0001
0000
0100
0000
1000
0100
0010
0000
0001
0100
0010
0000
0001
0100
,
1000
0010
1000
0100
1000
0001
0010
0001
,
0100
0001
0010
0100
0010
0001
1000
0100
,
0010
0000
0001
0100
0001
0100
0010
1000
0010
1000
0010
0000
0100
0000
0010
0000
,
1000
0000
0100
0000
0010
0000
0001
1000
0001
0000
0010
0100
0002
0000
0000
0000
,
1003
0000
0100
1000
0001
1000
0100
1000
0010
0100
0001
0000
0010
0000
0001
0000
,
0100
0000
0010
0000
1000
0000
0001
0100
0010
1000
0000
0100
0000
1000
0001
0000
,
0120
0000
0032
0000
2003
0000
3001
1000
,
0100
1000
0001
0100
0002
0000
1003
0100
,
0020
0000
0030
0001
0010
0100
1000
0001
,
0020
0000
0000
0000
0032
0000
0000
0000
0203
0000
0000
0300
0010
1000
0100
0000
,
0120
0000
0032
0000
0203
0000
0301
0100
,
1000
0100
0001
0010
0200
0000
1300
0010
,
0200
0000
0301
0100
0010
1000
0100
0010
,
0002
0000
0000
0000
0023
0000
0000
0000
0230
0000
0000
1300
0000
0100
1000
0000
;

//---------------dance-single - BEGINNER----------------
#NOTES:
     dance-single:
     BEGINNER:
     Beginner:
     1:
     0.122,0.151,0.010,0.000,0.000:
0000
0000
0000
0000
,
0000
0000
0000
0000
,
0000
0000
0000
0000
,
0000
0000
0000
0000
,
0001
0000
0001
0000
,
0010
0000
0010
0000
,
1000
0000
1000
0000
,
0010
0000
0010
0000
,
0001
0001
0001
0000
,
1000
0000
1000
0000
,
0010
0010
0010
0000
,
0100
0000
0100
0000
,
0001
0001
0001
0000
,
0100
0000
0100
0000
,
1000
1000
1000
0000
,
0010
0000
0010
0000
,
1001
0000
0000
0000
,
0001
0000
0000
0000
,
1000
0000
0000
0000
,
0001
0000
1000
0000
,
0100
0000
0100
0000
,
0010
0000
0010
0000
,
0001
0000
0100
0000
,
0010
0000
1000
0000
,
1000
0000
0001
0000
,
0010
0000
0100
0000
,
1000
0000
1000
0000
,
0001
0000
0001
0000
,
1000
1000
1000
0000
,
0001
0000
0001
0000
,
1000
0000
0100
0000
,
0001
0000
0100
0000
,
0010
0010
0010
0000
,
1000
0000
1000
0000
,
0010
0010
0010
0000
,
0001
0000
0001
0000
,
0000
0001
0001
0000
,
0010
0000
0100
0000
,
0010
0000
1000
0000
,
0010
0000
0100
0100
,
0000
0010
0010
0000
,
1000
0000
0001
0000
,
0100
0000
0001
0000
,
1000
0000
0010
0010
;
