#TITLE:Double Down Under;
#SUBTITLE:;
#ARTIST:The Crystal Method;
#TITLETRANSLIT:;
#SUBTITLETRANSLIT:;
#ARTISTTRANSLIT:;
#GENRE:;
#CREDIT:;
#MENUCOLOR:;
#BANNER:Double Down Under.png;
#BACKGROUND:Double Down Under-BG.png;
#LYRICSPATH:;
#CDTITLE:;
#MUSIC:Double Down Under.mp3;
#OFFSET:-1.433;
#SAMPLESTART:45.691;
#SAMPLELENGTH:12.000;
#SELECTABLE:YES;
#LISTSORT:;
#BPMS:0.000=130.000,128.000=65.000,136.000=130.000;
#STOPS:;
#TICKCOUNT:0.000=2;
#BGCHANGES:;
#KEYSOUNDS:;
#ATTACKS:;

//---------------dance-single - LIGHT----------------
#NOTES:
     dance-single:
     LIGHT:
     Easy:
     3:
     0.256,0.422,0.019,0.267,0.000: // measure 1
0000
0000
0000
0000
,  // measure 2
0000
0000
0000
0000
,  // measure 3
0000
0000
0000
0000
,  // measure 4
0000
0000
0000
0000
,  // measure 5
0002
0003
0001
0000
,  // measure 6
2000
3000
1000
0001
,  // measure 7
2000
3000
0010
0010
,  // measure 8
0200
0300
0100
0000
,  // measure 9
0001
0100
0010
0100
,  // measure 10
2000
3000
1000
0000
,  // measure 11
1000
0010
0100
0010
,  // measure 12
0002
0003
0001
0000
,  // measure 13
1000
0100
1000
0001
,  // measure 14
2000
3000
1000
0000
,  // measure 15
0001
1000
0001
0010
,  // measure 16
0001
1000
0001
1000
,  // measure 17
0001
0010
0000
1000
,  // measure 18
0000
0010
0000
0001
,  // measure 19
0000
1000
0000
0100
,  // measure 20
0000
0010
0000
0001
,  // measure 21
0100
0001
0000
1000
,  // measure 22
0000
0001
0000
0010
,  // measure 23
0000
0100
0000
0010
,  // measure 24
0002
0000
0003
0000
0002
0000
0000
0003
,  // measure 25
2002
3003
1000
0001
,  // measure 26
1000
0100
0100
1000
,  // measure 27
0001
0020
1030
0020
,  // measure 28
0031
0200
1300
0200
,  // measure 29
0301
0100
1000
0001
,  // measure 30
1000
0100
0001
1000
,  // measure 31
0001
0020
0031
0020
,  // measure 32
1030
0200
0301
0100
,  // measure 33
0020
2030
3020
0230
,  // measure 34
0320
0000
0032
0000
0023
0000
0130
0100
,  // measure 35
0001
0100
0001
1000
,  // measure 36
0001
0010
0001
0100
,  // measure 37
0100
0010
0100
1000
,  // measure 38
0100
0010
1000
0001
,  // measure 39
0001
0010
0100
0010
,  // measure 40
1000
0010
0001
0100
,  // measure 41
0010
1000
0100
0010
,  // measure 42
0100
0000
1000
0000
0020
0000
0000
0030
,  // measure 43
1000
0001
1000
0001
,  // measure 44
0001
0100
0001
0100
,  // measure 45
1000
0001
1000
0001
,  // measure 46
0001
0010
0001
0100
,  // measure 47
0010
1000
0010
1000
,  // measure 48
1000
0001
1000
0001
,  // measure 49
0010
0100
0010
0100
,  // measure 50
0100
1000
0100
1000
,  // measure 51
2002
0000
0000
0000
,  // measure 52
0000
0000
0000
0000
,  // measure 53
3003
0000
0000
0000
;

//---------------dance-single - HEAVY----------------
#NOTES:
     dance-single:
     HEAVY:
     Hard:
     8:
     0.501,0.669,0.277,0.248,0.305:
0000
0000
0000
0000
,
0000
0000
0000
0000
,
0000
0000
0000
0000
,
0000
0000
0000
0000
,
2200
0000
3300
2200
0000
3300
1100
0000
,
0022
0000
0033
0011
0000
0010
1000
0000
,
1001
0000
0001
1000
0110
0000
0110
0000
,
2002
0000
3003
1001
0000
1000
0001
0000
,
1000
0000
0010
0000
0100
0000
0001
0000
0010
0000
0100
1000
0000
0001
0000
1000
,
0010
0000
1000
0000
0100
0000
0010
0000
0001
0000
0010
0001
0000
0100
0000
0100
,
0001
0000
0010
0000
0100
0000
1000
0000
0001
0000
1000
0010
0000
0010
0000
1000
,
0001
0000
1000
0000
0001
1000
0000
0010
0000
1000
0001
0000
0100
0000
0100
0000
,
0001
0000
0100
0000
0010
0000
1000
0000
0010
0000
1000
0100
0000
0010
0000
1000
,
0100
0000
0010
0000
0001
0000
0100
0000
0010
0000
0001
0010
0000
1000
0010
0000
,
0001
0000
0100
0000
0010
0000
1000
0000
0001
0000
0100
0010
0000
1000
0000
0010
,
0100
0000
0001
0100
0000
1000
0100
0000
1000
0000
0100
0000
1000
0000
0001
0000
,
0000
0000
1000
0000
0100
0000
1000
0100
0000
0000
0010
0000
0001
0000
0100
0000
,
0000
0000
0001
0000
0100
0000
0010
1000
0000
0000
0010
0000
0001
0000
0100
0000
,
0000
0000
1000
0000
0100
0000
0001
0100
0000
0000
0100
0000
0001
0000
0010
0000
,
0000
0000
0001
0000
1000
0000
0001
0100
0000
0000
1000
0000
0100
0000
0010
0000
,
0000
0000
1000
0000
0010
0000
1000
0100
0000
0000
0010
0000
1000
0000
0100
0000
,
0000
0000
0001
0000
0100
0000
0001
0010
0000
0000
0010
0000
0001
0000
0100
0000
,
0000
0000
0010
0000
0100
0000
0001
0010
0000
0000
1000
0000
0010
0000
0100
0000
,
0000
0001
0010
0100
2000
0000
3001
0000
,
0220
0000
0000
0000
0330
0000
0101
0000
0000
1100
0000
0000
0110
0000
0000
0000
,
2002
0000
0000
0000
3003
0000
0011
0000
0000
1010
0000
0000
0101
0000
0000
0000
,
1000
0000
0010
0000
1000
0000
0010
1000
0000
0000
0001
0000
0100
0000
0001
0100
,
0000
0000
0010
0000
0001
0000
0010
0001
0000
0000
1000
0000
0100
0000
0010
0000
,
2002
0000
0000
0000
3003
0000
0101
0000
0000
0011
0000
0000
0110
0000
0000
0000
,
2020
0000
0000
0000
3030
0000
1010
0000
0000
0110
0000
0000
0101
0000
0000
0000
,
0100
0000
1000
0000
0100
0000
0001
0010
0000
0000
0001
0000
0010
0000
1000
0100
,
0000
0000
1000
0000
0010
0000
0100
0001
0000
0000
0010
0000
1000
0000
0100
0000
,
0010
0001
0100
0000
0010
1000
0100
0000
1000
0010
0001
0000
1000
0100
0001
0000
,
0001
0100
1000
0000
0001
0010
1000
0000
0001
0100
0010
0000
1100
0000
0101
0000
,
2000
0010
0000
0001
0000
0010
0000
0100
,
0000
0001
0000
0100
0000
0010
0000
3100
,
0000
0002
0000
0010
0000
0100
0000
0010
,
0000
1000
0000
0010
0000
0100
0000
0103
,
0000
2000
0000
0010
0000
0100
0000
0001
,
0000
0100
0000
0001
0000
0010
0000
3100
,
0000
0020
0000
0001
0000
1000
0000
0100
,
0000
1000
0000
0001
0000
1000
1030
0000
,
1000
0000
0010
0000
0100
0000
0001
0000
0001
0100
0010
1000
0000
0001
0000
0000
,
0001
0000
0100
0000
0001
0000
0010
0000
0100
1000
0001
0010
0000
0001
0000
0000
,
1000
0000
0001
0000
0010
0000
0001
0000
1000
0001
0010
0100
0000
1000
0000
0000
,
1000
0001
0200
0000
0301
1000
0200
0000
,
1300
0000
0100
0000
0010
0000
0001
0000
0100
0001
0100
0010
0000
1000
0000
0000
,
1000
0000
0001
0000
1000
0000
0100
0000
0001
1000
0100
0010
0000
0001
0000
0000
,
0001
0000
0100
0000
1000
0000
0100
0000
0001
1000
0010
0001
0000
0010
0000
0000
,
0001
1000
0020
0000
1030
0001
0010
0000
,
0220
0000
0000
0000
,
0000
0000
0000
0000
,
0000
0000
0000
0000
,
0000
0000
0000
0000
,
0330
0000
0000
0000
;

//---------------dance-single - STANDARD----------------
#NOTES:
     dance-single:
     STANDARD:
     Medium:
     6:
     0.384,0.556,0.238,0.238,0.105: // measure 1
0000
0000
0000
0000
,  // measure 2
0000
0000
0000
0000
,  // measure 3
0000
0000
0000
0000
,  // measure 4
0000
0000
0000
0000
,  // measure 5
2200
0000
3300
2200
0000
3300
0001
0000
,  // measure 6
0220
0000
0330
0110
0000
0001
1000
0000
,  // measure 7
0110
0000
1000
0100
0010
0000
0010
0000
,  // measure 8
2002
0000
3003
2002
0000
3003
0010
0000
,  // measure 9
0001
0000
1000
0000
0001
0000
0000
0000
0010
0000
0000
0001
0000
0000
1000
0000
,  // measure 10
0010
0000
1000
0000
0010
0000
0000
0000
0100
0000
0000
0001
0000
0000
0001
0000
,  // measure 11
0100
0000
0010
0000
1000
0000
0000
0000
1000
0000
0000
0100
0000
0000
0010
0000
,  // measure 12
1000
0000
0100
0000
0000
0010
0000
0001
0000
0000
0001
0000
0100
0000
0010
0000
,  // measure 13
1000
0000
0001
0000
0010
0000
0000
0000
1000
0000
0000
0001
0000
0000
0010
0000
,  // measure 14
0001
0000
0100
0000
0010
0000
0000
0000
0001
0000
0000
1000
0000
0000
0001
0000
,  // measure 15
0100
0000
0010
0000
1000
0000
0000
0000
0010
0000
0000
0001
0000
0000
0010
0000
,  // measure 16
1000
0000
0001
0000
0100
0000
0000
0000
0010
0000
0000
1000
0000
0000
0001
0000
,  // measure 17
0000
1000
0000
0100
0000
0010
0000
0001
,  // measure 18
0000
1000
0000
0100
0000
0010
0001
0100
,  // measure 19
0000
0001
0000
1000
0000
0001
0000
0100
,  // measure 20
0000
0010
0000
0100
0000
0010
1000
0100
,  // measure 21
0000
1000
0000
0001
0000
0100
0000
1000
,  // measure 22
0000
0100
0000
0001
0000
1000
0100
0001
,  // measure 23
0000
1000
0000
0100
0000
0010
0000
0001
,  // measure 24
0000
1000
0000
1000
0000
1001
0000
0000
,  // measure 25
2002
0000
0000
0000
3003
0000
0001
0000
0000
0100
0000
0000
0001
0000
0000
0000
,  // measure 26
0220
0000
0000
0000
0330
0000
1000
0000
0000
0001
0000
0000
0100
0000
0000
0000
,  // measure 27
1000
0000
0001
0000
0100
0000
0000
0001
0000
0000
1000
0000
0010
0000
0000
1000
,  // measure 28
0000
0000
0001
0000
1000
0000
0000
0100
0000
0000
1000
0000
0001
0000
0000
0000
,  // measure 29
0220
0000
0000
0000
0330
0000
0001
0000
0000
1000
0000
0000
0001
0000
0000
0000
,  // measure 30
2002
0000
0000
0000
3003
0000
1000
0000
0000
0100
0000
0000
0010
0000
0000
0000
,  // measure 31
1000
0000
0001
0000
0010
0000
0000
0001
0000
0000
1000
0000
0010
0000
0000
1000
,  // measure 32
0000
0000
0001
0000
0100
0000
0000
0001
0000
0000
1000
0000
0010
0000
0000
0000
,  // measure 33
0010
0000
1000
0000
0010
1000
0100
0000
1000
0000
0001
0000
0010
0001
0100
0000
,  // measure 34
0001
0000
0010
0000
0001
0100
0010
0000
1000
0000
0001
0000
1001
0000
0110
0000
,  // measure 35
1000
0010
0000
0100
0000
0010
0000
0100
,  // measure 36
0000
0001
0000
1000
0000
0001
0100
1000
,  // measure 37
0000
0001
0000
1000
0000
0001
0000
1000
,  // measure 38
0000
0010
0000
0100
0000
0010
0100
0001
,  // measure 39
0000
0010
0000
0100
0000
0010
0000
0001
,  // measure 40
0000
1000
0000
0001
0000
1000
0100
0001
,  // measure 41
0000
0100
0000
1000
0000
0010
0000
1000
,  // measure 42
0000
0100
0000
0010
0002
0000
1003
0000
,  // measure 43
1001
0000
0100
0000
1000
0100
0001
0000
,  // measure 44
1001
0000
0010
0000
1000
0010
0001
0000
,  // measure 45
0110
0000
1000
0000
0001
0100
0010
0000
,  // measure 46
1020
0130
0021
0130
,  // measure 47
1001
0000
0100
0000
1000
0100
0001
0000
,  // measure 48
0110
0000
0001
0000
1000
0010
0001
0000
,  // measure 49
1010
0000
0001
0000
1000
0100
0010
0000
,  // measure 50
0012
0000
0000
0000
0100
0003
0000
0000
2100
0000
0000
0000
3010
0000
0000
0000
,  // measure 51
2002
0000
0000
0000
,  // measure 52
0000
0000
0000
0000
,  // measure 53
0000
0000
0000
0000
,  // measure 54
3003
0000
0000
0000
;

//---------------dance-single - BEGINNER----------------
#NOTES:
     dance-single:
     BEGINNER:
     Beginner:
     1:
     0.135,0.146,0.010,0.019,0.000: // measure 1
0000
0000
0000
0000
,  // measure 2
0000
0000
0000
0000
,  // measure 3
0000
0000
0000
0000
,  // measure 4
0000
0000
0000
0000
,  // measure 5
1000
0000
1000
0000
,  // measure 6
1000
0000
0010
0000
,  // measure 7
0001
0001
0001
0000
,  // measure 8
0001
0000
0010
0000
,  // measure 9
1000
0000
0010
0000
,  // measure 10
0001
0000
0100
0000
,  // measure 11
1000
0000
0100
0000
,  // measure 12
0001
0000
0010
0000
,  // measure 13
1000
0000
0001
0000
,  // measure 14
0010
0000
0001
0000
,  // measure 15
0010
0000
1000
0000
,  // measure 16
0100
0000
0001
0001
,  // measure 17
0000
1000
0000
0100
,  // measure 18
0000
0010
0000
0001
,  // measure 19
0000
1000
0000
0010
,  // measure 20
0000
0100
0000
0001
,  // measure 21
0000
0001
0000
0100
,  // measure 22
0000
0010
0000
1000
,  // measure 23
0000
0001
0000
0010
,  // measure 24
0000
0100
0000
1000
,  // measure 25
1000
0000
1000
0000
,  // measure 26
0001
0000
0001
0000
,  // measure 27
0000
1000
0000
0010
,  // measure 28
0000
0001
0000
0100
,  // measure 29
0100
0000
0010
0000
,  // measure 30
0100
0000
0010
0000
,  // measure 31
0000
1000
0000
0001
,  // measure 32
0000
0010
0000
0100
,  // measure 33
0100
0000
0010
0000
,  // measure 34
0100
0000
0010
0010
,  // measure 35
0000
0010
0000
1000
,  // measure 36
0000
0010
0000
0001
,  // measure 37
0000
1000
0000
0100
,  // measure 38
0000
0001
0000
0100
,  // measure 39
0000
1000
0000
0100
,  // measure 40
0000
1000
0000
0010
,  // measure 41
0000
0001
0000
0100
,  // measure 42
0000
0001
0001
0000
,  // measure 43
0001
0000
1000
0000
,  // measure 44
0001
0000
0100
0000
,  // measure 45
1000
0000
0001
0000
,  // measure 46
0010
0000
0010
0000
,  // measure 47
1000
0000
0100
0000
,  // measure 48
1000
0000
0001
0000
,  // measure 49
1000
0000
0010
0000
,  // measure 50
0001
0000
1000
0000
,  // measure 51
2002
0000
0000
0000
,  // measure 52
3003
0000
0000
0000
;
