#TITLE:Don't Be Cruel;
#SUBTITLE:;
#ARTIST:Bobby Brown;
#TITLETRANSLIT:;
#SUBTITLETRANSLIT:;
#ARTISTTRANSLIT:;
#GENRE:;
#CREDIT:;
#MENUCOLOR:;
#BANNER:Don't Be Cruel.png;
#BACKGROUND:Don't Be Cruel-BG.png;
#LYRICSPATH:;
#CDTITLE:;
#MUSIC:Don't Be Cruel.mp3;
#OFFSET:-0.050;
#SAMPLESTART:55.515;
#SAMPLELENGTH:12.000;
#SELECTABLE:YES;
#LISTSORT:;
#DISPLAYBPM:102.000;
#BPMS:0.000=102.400;
#STOPS:;
#TICKCOUNT:0.000=2;
#BGCHANGES:;
#KEYSOUNDS:;
#ATTACKS:;

//---------------dance-single - HEAVY----------------
#NOTES:
     dance-single:
     HEAVY:
     Hard:
     7:
     0.440,0.466,0.233,0.000,0.275:
0000
0000
0000
0000
,
0000
0000
0000
0000
,
0000
0000
0000
0000
,
0000
0000
0000
0000
,
0001
0000
1000
0000
0001
0100
0001
0000
0000
0000
0010
0000
0100
1000
0100
0000
,
1000
0000
0010
0000
0100
0010
0100
0000
0000
0000
0010
0000
0100
0001
0100
0000
,
0001
0000
0010
0000
0001
1000
0100
0000
0000
0000
0010
0000
0001
1000
0100
0000
,
0011
0000
0000
1001
0000
0000
1100
0000
1001
0000
0000
0101
0000
0000
1100
0000
,
0001
0000
1000
0000
0100
0010
0001
0000
0010
0000
0000
0001
0000
0000
0000
0000
,
0001
0010
0001
0100
0010
0100
0001
0010
,
0100
0000
1000
0000
0001
0100
0001
0000
1000
0000
0000
0001
0000
0000
0000
0000
,
0010
0100
0010
1000
0100
0010
0001
0100
,
0010
0000
1000
0000
0100
1000
0100
0000
1000
0000
0000
0010
0000
0000
0000
0000
,
0010
1000
0001
0100
0001
1000
0100
1000
,
0001
0000
0010
0000
0001
0100
0001
0000
1000
0000
0000
0010
0000
0000
0000
0000
,
0011
0000
0000
0110
0000
0000
1100
0000
1010
0000
0000
0110
0000
0000
0101
0000
,
0100
0010
0100
1000
0100
0010
0100
0001
,
0100
0000
0010
0000
1000
0000
0100
0000
0010
0001
1000
0000
0001
0000
0010
0000
,
0100
1000
0010
1000
,
0010
0000
0000
0000
0100
0000
0000
0000
0010
0100
0010
0000
0010
0000
1000
0000
,
0100
0010
0001
1000
0100
0010
0001
1000
,
0001
0000
0010
0000
0001
0000
0100
0000
0001
1000
0100
0000
0100
0000
0010
0000
,
0001
0000
0000
0000
1000
0000
0000
0000
0010
0000
0000
0000
1000
0001
1000
0000
,
0110
0000
0110
0000
0000
0000
0000
0000
0000
0000
0000
0010
0100
0000
0010
0000
,
1000
0000
0000
0100
0000
0000
0010
0000
0001
0000
0000
0100
0000
0000
1000
0000
,
0001
0100
0010
1000
0010
0010
0001
0010
,
1000
0000
0000
0010
0000
0000
0100
0000
0001
0000
0000
0100
0000
0000
1000
0000
,
0101
0000
0000
1100
0000
0001
0100
0000
1000
0000
0000
0010
1000
0000
0100
0000
,
0001
0000
0000
0100
0000
0000
0010
0000
0100
0000
0000
1000
0000
0000
0100
0000
,
0001
1000
0001
0010
0001
1000
0100
1000
,
0100
0000
1000
0010
0000
0000
1000
0000
0010
0000
0000
0100
0000
0000
0001
0000
,
0101
0000
0000
0101
0000
0000
0000
0000
0000
0000
0000
0100
0001
0000
0100
0000
,
0010
0000
0100
0000
0001
0000
0100
0000
0010
0000
1000
0000
0001
1000
0100
0000
,
0000
0000
0010
0000
0100
0000
1000
0000
0100
0000
0000
1000
0000
0100
0010
0000
,
0000
0010
0001
0000
1000
0000
0001
1000
0001
0000
0010
0000
0100
0000
1000
0010
,
1000
0000
0100
0000
0010
0000
0001
0000
1000
0100
0000
0010
0000
0000
0000
0000
,
0010
0000
0010
0001
0000
0001
0100
0000
0000
0100
0000
0100
0010
1000
0001
0000
,
1000
0000
0010
0000
0100
0000
0010
0000
1000
0000
0001
1000
0010
0100
0001
0000
,
0110
0110
0000
1000
0001
0100
0000
1000
,
0110
0000
0110
0000
0000
0000
0001
0000
1000
0000
0100
1000
0001
0000
0010
0000
,
0100
0000
0000
0000
;

//---------------dance-single - LIGHT----------------
#NOTES:
     dance-single:
     LIGHT:
     Easy:
     2:
     0.157,0.191,0.021,0.021,0.000: // measure 1
0000
0000
0000
0000
,  // measure 2
0000
0000
0000
0000
,  // measure 3
0000
0000
0000
0000
,  // measure 4
0000
0000
0000
0000
,  // measure 5
0001
0000
0010
0000
,  // measure 6
1000
0000
0000
0000
,  // measure 7
1000
0000
0010
0000
,  // measure 8
0001
0001
1000
1000
,  // measure 9
0010
0000
0000
0000
,  // measure 10
0010
1000
0010
1000
,  // measure 11
0100
0000
0000
0000
,  // measure 12
0001
1000
0001
0100
,  // measure 13
1000
0000
0000
0000
,  // measure 14
0001
1000
0010
1000
,  // measure 15
0010
0000
0000
0000
,  // measure 16
0010
0100
0010
0100
,  // measure 17
0010
0000
1000
0000
,  // measure 18
0010
1000
0100
0010
,  // measure 19
0001
0000
1000
0000
,  // measure 20
0010
0010
0010
0100
,  // measure 21
0010
0000
1000
0000
,  // measure 22
0001
0100
1000
0100
,  // measure 23
0001
0000
0000
1000
,  // measure 24
1001
0000
0000
0001
,  // measure 25
0001
0000
0010
0000
,  // measure 26
0010
0100
1000
0100
,  // measure 27
0010
0000
1000
0000
,  // measure 28
0001
0010
0001
1000
,  // measure 29
0100
0000
1000
0000
,  // measure 30
0001
1000
0001
0100
,  // measure 31
0001
0000
1000
0000
,  // measure 32
0010
0010
0000
0100
,  // measure 33
0010
1000
0010
0100
,  // measure 34
0000
1000
0001
0100
,  // measure 35
0000
0010
0100
0010
,  // measure 36
0001
1000
0001
0001
,  // measure 37
2000
3000
0002
0003
,  // measure 38
1000
0001
0001
1000
,  // measure 39
0010
0010
0000
0000
0000
0000
0000
0000
,  // measure 40
0010
0010
0000
0000
0000
0000
0100
0000
,  // measure 41
1001
0000
0000
0000
;

//---------------dance-single - STANDARD----------------
#NOTES:
     dance-single:
     STANDARD:
     Medium:
     5:
     0.307,0.381,0.095,0.000,0.106:
0000
0000
0000
0000
,
0000
0000
0000
0000
,
0000
0000
0000
0000
,
0000
0000
0000
0000
,
0100
0000
0000
0001
0000
0000
0010
0000
0001
0000
0000
0100
0000
0000
0010
0000
,
1000
0000
0001
0000
0000
0100
0001
0000
,
0010
0000
0000
1000
0000
0000
0100
0000
1000
0000
0000
0001
0000
0000
0100
0000
,
0001
0000
0000
0001
0000
0000
0001
0000
1000
0000
0000
1000
0000
0000
1000
0000
,
0010
1000
0100
1000
,
0010
0000
0100
0000
0010
0100
0001
1000
,
0001
0100
1000
0100
,
0001
0000
1000
0000
1000
0001
0100
0010
,
1000
0010
1000
0100
,
0010
0000
0001
0000
0001
1000
0001
0100
,
1000
0100
0001
0100
,
0010
0000
0000
0010
0000
0000
0010
0000
0100
0000
0000
0100
0000
0000
0100
0000
,
0010
1000
0100
0010
,
0001
0000
1000
0000
0001
0100
0001
1000
,
0001
0010
1000
0100
,
0010
0000
0010
0000
1000
0100
1000
0010
,
0100
0001
0010
0100
,
0010
0000
0001
0000
1000
0100
1000
0001
,
1000
0001
0010
0001
,
1001
1001
0000
0000
0000
0000
0010
0100
,
1001
0000
0000
1000
0000
0000
0010
0000
1000
0000
0000
1000
0000
0000
0100
0000
,
0010
0000
0001
0000
1000
0100
1000
0001
,
0100
0000
0000
0001
0000
0000
0010
0000
0001
0000
0000
0100
0000
0000
0010
0000
,
1000
0000
0000
1000
0000
0000
0001
0000
1000
0000
0000
0000
0010
0000
0010
0000
,
0100
0000
0000
0001
0000
0000
0010
0000
0100
0000
0000
1000
0000
0000
0001
0000
,
0010
0000
1000
0000
0010
0100
0001
0010
,
0100
0000
0000
1000
0000
0000
0010
0000
0100
0000
0000
0001
0000
0000
0010
0000
,
1000
0000
0000
1000
0000
0000
0000
0000
0001
0000
0000
0000
0001
0000
1000
0000
,
1001
0000
0100
0000
0001
1000
0001
0100
,
0000
0000
0010
0000
1000
0000
0000
0000
0100
0000
0000
0100
0000
0000
0100
0000
,
0000
0010
0001
0000
1000
0010
0001
0000
,
0010
0100
0001
0000
0010
0001
0100
0000
,
0010
0000
0000
1000
0000
0000
0010
0000
0000
0000
1000
0000
0100
0000
0010
0000
,
0000
1000
0100
0010
0001
0000
0010
0100
,
0110
1001
0000
0100
0010
0100
0000
0010
,
0110
1001
0000
0100
0010
0000
0001
1000
,
1001
0000
0000
0000
;

//---------------dance-single - BEGINNER----------------
#NOTES:
     dance-single:
     BEGINNER:
     Beginner:
     1:
     0.109,0.148,0.053,0.000,0.000: // measure 1
0000
0000
0000
0000
,  // measure 2
0000
0000
0000
0000
,  // measure 3
0000
0000
0000
0000
,  // measure 4
0000
0000
0000
0000
,  // measure 5
0001
0000
0010
0000
,  // measure 6
1000
0000
0000
0000
,  // measure 7
1000
0000
0010
0000
,  // measure 8
0001
0000
1000
0000
,  // measure 9
0010
0000
0000
0000
,  // measure 10
0010
0000
1000
0000
,  // measure 11
0100
0000
0000
0000
,  // measure 12
0001
0000
0100
0000
,  // measure 13
1000
0000
0000
0000
,  // measure 14
0001
0000
1000
0000
,  // measure 15
0010
0000
0000
0000
,  // measure 16
0010
0000
0100
0000
,  // measure 17
0010
0000
1000
0000
,  // measure 18
0010
0000
1000
0000
,  // measure 19
0001
0000
1000
0000
,  // measure 20
0010
0000
0100
0000
,  // measure 21
0010
0000
1000
0000
,  // measure 22
0001
0000
0100
0000
,  // measure 23
1000
0000
0000
1001
,  // measure 24
1001
0000
0000
0001
,  // measure 25
0001
0000
0010
0000
,  // measure 26
0010
0000
0100
0000
,  // measure 27
1000
0000
1000
0000
,  // measure 28
0001
0000
0010
0000
,  // measure 29
0100
0000
1000
0000
,  // measure 30
0001
0000
1000
0000
,  // measure 31
0100
0000
1000
0000
,  // measure 32
0010
0010
0000
0000
,  // measure 33
0010
0010
0000
0100
,  // measure 34
0000
1000
0000
0100
,  // measure 35
0000
0010
0000
0100
,  // measure 36
0000
1000
0000
0001
,  // measure 37
0001
0000
1000
0000
,  // measure 38
1000
0000
0001
0000
,  // measure 39
0110
0000
0000
0000
,  // measure 40
0110
0000
0000
0000
,  // measure 41
1001
0000
0000
0000
;
