#TITLE:Do It Right(X-Special);
#SUBTITLE:;
#ARTIST:SOTA feat.Ebony Fay;
#TITLETRANSLIT:;
#SUBTITLETRANSLIT:;
#ARTISTTRANSLIT:;
#GENRE:;
#CREDIT:;
#MENUCOLOR:;
#BANNER:Do It Right(X-Special).png;
#BACKGROUND:Do It Right(X-Special)-bg.png;
#LYRICSPATH:;
#CDTITLE:./CDTITLES/DANCE DANCE REVOLUTION HOME VERSION.PNG;
#MUSIC:Do It Right.mp3;
#OFFSET:-0.121;
#SAMPLESTART:42.760;
#SAMPLELENGTH:15.000;
#SELECTABLE:YES;
#LISTSORT:;
#DISPLAYBPM:135.000;
#BPMS:0.000=135.000;
#STOPS:;
#TICKCOUNT:0.000=2;
#BGCHANGES:15.750=Grid3.avi=1.000=1=0=1,
31.750=Lady5.avi=1.485=0=0=1,
35.750=Lady3.avi=1.485=0=0=1,
39.750=Text11.avi=0.724=0=0=1,
47.750=Lady4.avi=0.724=0=0=1,
55.750=Cube4.avi=1.485=0=0=1,
63.750=Lady5.avi=1.485=0=1=1,
67.750=Lady3.avi=1.485=0=1=1,
71.750=Text11.avi=0.724=0=1=1,
79.750=Lady4.avi=0.724=0=1=1,
87.750=Cube4.avi=1.485=0=1=1,
95.750=Text12.avi=1.000=0=0=1,
103.750=Web1.avi=1.000=0=0=1,
111.750=Circle6.avi=1.020=0=0=1,
119.750=Cube9.avi=1.782=0=0=1,
127.750=Text12.avi=1.000=0=1=1,
135.750=Web1.avi=1.000=0=1=1,
143.750=Circle6.avi=1.020=0=1=1,
151.750=Cube9.avi=1.782=0=1=1,
159.750=Lady5.avi=1.485=0=1=1,
163.750=Lady3.avi=1.485=0=1=1,
167.750=Text11.avi=0.724=0=1=1,
175.750=Lady4.avi=0.724=0=1=1,
183.750=Cube4.avi=1.485=0=1=1,
191.750=Do It Right(X-Special)-BG.png=1.000=0=0=1;
#KEYSOUNDS:;
#ATTACKS:;

//---------------dance-single - X-SPECIAL----------------
#NOTES:
     dance-single:
     X-SPECIAL:
     Edit:
     10:
     0.508,0.525,0.241,0.142,0.060: // measure 1
0000
0000
0000
0000
,  // measure 2
0000
0000
0000
0000
,  // measure 3
0000
0000
0000
0000
,  // measure 4
0000
0000
0000
0000
,  // measure 5
0001
0100
0001
0010
0001
1000
0010
0010
,  // measure 6
1000
0100
1000
0010
1000
0001
0010
0000
,  // measure 7
1000
0100
1000
0001
0010
0100
1000
1000
,  // measure 8
0001
0100
0001
0000
1000
0000
0010
0000
1000
0000
0010
0000
0100
0000
0000
0000
,  // measure 9
1001
0000
1000
0000
0010
0000
0001
MMMM
,  // measure 10
1001
0000
0001
0000
0010
0000
1000
MMMM
,  // measure 11
0010
0100
1000
0001
0100
0010
1000
0001
,  // measure 12
1000
0000
0010
0000
0001
0000
0010
0000
1000
0000
0000
1010
0000
0000
0101
0000
,  // measure 13
0110
0000
1000
0000
0100
0000
0001
MMMM
,  // measure 14
0110
0000
0001
0000
0100
0000
1000
MMMM
,  // measure 15
0010
0100
1000
0001
0100
0010
1000
0001
,  // measure 16
1000
0000
0010
0000
0100
0000
0001
0000
0101
0000
0000
0110
0000
0000
1010
0000
,  // measure 17
1001
0000
0010
0000
0100
0000
0001
MMMM
,  // measure 18
1001
0000
0010
0000
0100
0000
1000
MMMM
,  // measure 19
0001
0100
0001
0010
0100
1000
0010
0100
,  // measure 20
0010
0000
1000
0000
0001
0000
0100
0000
0101
0000
0000
1100
0000
0000
0101
0000
,  // measure 21
0110
0000
1000
0000
0001
0000
0010
MMMM
,  // measure 22
0110
0000
0001
0000
1000
0000
0010
MMMM
,  // measure 23
0010
0100
1000
0000
0010
0100
0001
0000
,  // measure 24
0010
0000
0100
0000
1000
0000
0100
0000
0010
0000
0001
0000
1000
0100
0001
0100
,  // measure 25
1000
0000
0101
0000
0001
0100
0010
1000
,  // measure 26
0010
0100
0001
0100
0010
0000
1000
0100
,  // measure 27
0002
0000
0103
1000
0020
0000
1030
0100
,  // measure 28
0010
0000
0000
0001
0000
0000
0100
0000
0010
0000
0000
0000
1001
0000
0001
0000
,  // measure 29
0020
0000
0031
0100
0020
0000
1030
0100
,  // measure 30
2000
0000
3001
0100
0002
0000
1003
0010
,  // measure 31
1000
0000
0010
0100
0001
0100
1000
0100
,  // measure 32
0010
0000
1000
0000
0010
0000
0001
0000
0010
0000
0100
0000
0010
1000
0001
0100
,  // measure 33
0010
0000
0101
0000
0010
1000
0100
0010
,  // measure 34
0001
1000
0100
1000
0001
0000
0001
0100
,  // measure 35
0020
0000
1030
0100
0020
0000
0031
0100
,  // measure 36
0010
0000
0000
1000
0000
0000
0001
0000
0100
0000
0000
0000
0001
0000
0100
0000
,  // measure 37
2000
0000
3100
0001
0020
0000
0031
0010
,  // measure 38
0200
0000
1300
0010
0200
0000
0301
0100
,  // measure 39
0010
1000
0010
0000
0100
0001
0100
0000
,  // measure 40
0010
0100
0001
0100
0010
0100
1000
0100
,  // measure 41
0010
1000
0001
1000
0010
1000
0001
0001
,  // measure 42
1000
0010
0100
0010
1000
0100
1000
0000
,  // measure 43
0001
0100
0001
0010
0001
1000
0010
0010
,  // measure 44
1000
0100
0010
0001
0200
0010
0310
0000
,  // measure 45
0010
1000
0100
0010
0001
0100
0001
0001
,  // measure 46
0010
0100
1000
0001
1000
0100
0001
0000
,  // measure 47
0100
0010
0100
1000
0010
0100
0010
1000
,  // measure 48
0001
0100
0001
0000
1000
0000
0010
0000
0101
0000
0000
0000
1010
0000
0000
0000
,  // measure 49
1001
0000
0000
0000
;
