#TITLE:Discipline;
#SUBTITLE:;
#ARTIST:Nine Inch Nails;
#TITLETRANSLIT:;
#SUBTITLETRANSLIT:;
#ARTISTTRANSLIT:;
#GENRE:;
#CREDIT:;
#MENUCOLOR:;
#BANNER:Dicsipline.png;
#BACKGROUND:Dicsipline-BG.png;
#LYRICSPATH:;
#CDTITLE:;
#MUSIC:Discipline.mp3;
#OFFSET:-0.040;
#SAMPLESTART:54.342;
#SAMPLELENGTH:12.000;
#SELECTABLE:YES;
#LISTSORT:;
#BPMS:0.000=122.000;
#STOPS:;
#TICKCOUNT:0.000=2;
#BGCHANGES:;
#KEYSOUNDS:;
#ATTACKS:;

//---------------dance-single - HEAVY----------------
#NOTES:
     dance-single:
     HEAVY:
     Hard:
     6:
     0.467,0.431,0.132,0.113,0.000:
0000
0000
0000
0000
,
0000
0000
0000
0000
,
0000
0000
0000
0000
,
0000
0000
0000
0000
,
0001
0100
0010
1000
0000
0100
0010
0000
,
1000
0100
0001
0000
1000
0100
0010
0000
,
1000
0100
0010
0001
0000
0100
0010
0000
,
0001
0100
1000
0000
0010
0001
0100
0000
,
0100
0001
0010
0100
0000
1000
0001
0000
,
1000
0100
0001
0000
0001
0100
0010
0000
,
0100
0010
1000
0100
0000
0010
0001
0000
,
0010
1000
0100
0000
0010
0001
0100
0000
,
0001
0100
0010
1000
0000
0010
0100
0000
,
1000
0010
0100
0001
0000
0001
0010
0100
,
1000
0001
1000
0100
0000
1000
0010
0000
,
1000
0010
0001
0000
1000
0010
0001
0010
,
1000
0001
0010
0100
0000
1000
0001
0000
,
1000
0100
0010
0001
0100
0010
1000
0010
,
0100
0001
0010
0001
0000
0100
1000
0000
,
0100
0001
0010
0000
0100
1000
0010
1000
,
0100
1000
0001
0010
1000
0100
0010
0000
,
1000
0100
0001
0100
0000
1000
0001
0100
,
0001
0010
0100
1000
0000
0010
0100
0000
,
0010
0100
0001
0000
0010
0100
1000
0100
,
0001
1000
0010
0100
0000
0001
0010
0000
,
1000
0100
0001
0000
1000
0100
0001
0100
,
1000
0010
0100
0010
0000
1000
0100
0000
,
1000
0001
0100
0000
1000
0100
0010
0001
,
0100
0001
0100
0010
0100
0001
0100
0010
,
0100
1000
0100
0010
0100
1000
0100
0001
,
1000
0100
1000
0010
1000
0001
1000
0010
,
1000
0100
0010
0001
1000
0001
0010
1000
,
0001
0100
1000
0100
0010
0100
0001
0100
,
0001
1000
0001
1000
0010
0100
0010
0100
,
0001
0000
1000
0001
0000
1000
0000
1100
,
0000
1001
0000
0101
0000
0110
0110
0000
,
0010
0100
0010
1000
0010
0100
0010
0001
,
0010
1000
0001
0100
1000
0001
0010
1000
,
0001
0010
0001
0100
0010
1000
0100
1000
,
0001
0100
1000
0100
0001
1000
0100
0100
,
1000
0100
0001
0100
1000
0100
0010
0100
,
0001
0100
0010
0100
1000
0100
0010
0001
,
1000
0000
0001
0010
0000
0001
0000
0101
,
0000
1100
0000
0101
0000
1001
1001
0000
,
2000
0000
3100
0020
0000
0130
2000
0000
,
3001
0010
0100
1000
0001
0000
0101
0000
,
0020
0000
0130
0002
0000
0103
2000
0000
,
3100
0001
0010
0100
1000
0000
0011
0000
,
2000
0000
3001
0020
0000
0031
0200
0000
,
0310
0100
0001
1000
0100
0000
0101
0000
,
2000
0000
3100
0002
0000
1003
0200
0000
,
0310
0100
1000
0100
0001
0000
1100
0000
,
1000
1000
1000
0000
1000
0000
1000
0000
,
0001
0001
0001
0001
;

//---------------dance-single - LIGHT----------------
#NOTES:
     dance-single:
     LIGHT:
     Easy:
     3:
     0.279,0.355,0.009,0.321,0.000:
0000
0000
0000
0000
,
0000
0000
0000
0000
,
0000
0000
0000
0000
,
0000
0000
0000
0000
,
0001
0100
0001
0100
,
0002
0003
2000
3000
,
1000
0100
1000
0100
,
2000
3000
0020
0030
,
0100
0001
0100
0001
,
0200
0300
0020
0030
,
0100
1000
0100
1000
,
0200
0300
0002
0003
,
1000
1000
0000
0001
,
0000
1000
0000
1000
,
0020
0030
2000
3000
,
0002
0003
0100
0100
,
0001
1000
0000
0001
,
0000
1000
0000
0010
,
0200
0300
0002
0003
,
0020
0030
1000
0100
,
0100
1000
0000
0001
,
0000
1000
0001
1000
,
0020
0030
2000
3000
,
0002
0003
0100
0100
,
0001
1000
0000
0001
,
0000
0010
0000
0100
,
1000
0100
1000
0001
,
0200
0300
0020
0030
,
1000
0010
0002
0013
,
2000
3010
0002
0013
,
1000
0100
0010
0001
,
1000
0100
0010
0001
,
0200
0301
0020
0031
,
0200
1300
0020
1030
,
0100
0100
1000
1000
,
0010
0000
0010
0000
1000
0001
1000
0000
,
0120
0130
0200
0310
,
2000
3001
0002
1003
,
0001
1000
0010
0100
,
0001
1000
0100
0010
,
0200
1300
0020
0031
,
0200
0301
0020
1030
,
0100
0100
0001
0001
,
0010
0000
0010
0000
0001
1000
0001
0000
,
1000
1000
0001
0001
,
1000
0010
0001
0100
,
1000
1000
0100
0100
,
0001
0010
0100
1000
,
0010
0010
0100
0100
,
0001
0010
1000
0100
,
0001
0001
0010
0010
,
0001
0100
0010
1000
,
0001
0001
0001
0001
,
1000
1000
1000
1000
;

//---------------dance-single - STANDARD----------------
#NOTES:
     dance-single:
     STANDARD:
     Medium:
     4:
     0.335,0.329,0.066,0.339,0.000:
0000
0000
0000
0000
,
0000
0000
0000
0000
,
0000
0000
0000
0000
,
0000
0000
0000
0000
,
0100
0000
0001
0010
0000
0100
1000
0000
,
0001
1000
0001
1000
,
0001
0000
1000
0010
0000
0100
0001
0000
,
0010
0100
0010
0100
,
0010
0000
1000
0100
0000
0100
0010
0000
,
0001
0010
0100
0010
,
0001
0000
0010
0001
0000
0001
0100
0000
,
0010
0100
0001
1000
,
0001
0100
1000
0000
0000
0000
0001
0000
,
0000
1000
0010
0001
,
0020
1030
0200
0301
,
2000
3010
0200
0301
,
1000
0100
1000
0000
0000
0000
0001
0000
,
0000
1000
0010
1000
,
0020
1030
0002
0103
,
0002
0013
0200
1300
,
0001
1000
0001
0000
0000
0000
0010
0000
,
0000
0100
0010
1000
,
0020
0130
0002
1003
,
0020
1030
0200
1300
,
1000
0100
0001
0000
0000
0000
1000
0000
,
0000
0000
1000
0000
0100
1000
0100
0000
,
0010
0001
0100
0110
,
0010
1000
0100
0110
,
0001
1000
0001
0000
1000
0000
0010
0000
,
0002
0103
2000
3100
,
0001
0000
0100
1000
0000
0100
0001
0000
,
0001
0100
0001
0000
1000
0100
1000
0000
,
0001
1000
0001
0000
0100
0000
0010
0000
,
2000
3100
0002
0103
,
1000
0000
1000
0100
0000
0100
0000
0010
,
0000
0010
0000
0001
0000
0001
0100
0000
,
0001
1000
0001
0000
0100
0000
0010
0000
,
2000
3101
0002
0103
,
1000
0000
0100
0010
0000
0001
0100
0000
,
1000
0100
1000
0000
0001
0100
0001
0000
,
1000
0001
1000
0000
0100
0000
0010
0000
,
0002
0013
0200
1300
,
0010
0000
0010
1000
0000
1000
0000
0100
,
0000
0100
0000
0001
0000
0001
0100
0000
,
0002
0000
0003
0200
0000
0300
0002
0000
,
0003
0020
0000
0030
0001
0000
1001
0000
,
2000
0000
3000
0020
0000
0030
2000
0000
,
3000
0200
0000
0300
0010
0000
0110
0000
,
0002
0000
0003
0200
0000
0300
0020
0000
,
0030
2000
0000
3000
0001
0000
0101
0000
,
2000
0000
3000
0200
0000
0300
0002
0000
,
0003
0200
0000
0300
0010
0000
1100
0000
,
1000
1000
1000
0000
1000
0000
1000
0000
,
0001
0001
0001
0001
;

//---------------dance-single - BEGINNER----------------
#NOTES:
     dance-single:
     BEGINNER:
     Beginner:
     1:
     0.148,0.152,0.009,0.000,0.000: // measure 1
0000
0000
0000
0000
,  // measure 2
0000
0000
0000
0000
,  // measure 3
0000
0000
0000
0000
,  // measure 4
0000
0000
0000
0000
,  // measure 5
0001
0000
0001
0000
,  // measure 6
0001
0000
1000
0000
,  // measure 7
1000
0000
1000
0000
,  // measure 8
1000
0000
0001
0000
,  // measure 9
0100
0000
0100
0000
,  // measure 10
0100
0000
0010
0000
,  // measure 11
0100
0000
0100
0000
,  // measure 12
0100
0000
0010
0000
,  // measure 13
1000
1000
0000
0001
,  // measure 14
0000
1000
0000
0010
,  // measure 15
0010
0000
1000
0000
,  // measure 16
0001
0000
0100
0000
,  // measure 17
0001
0001
0000
0001
,  // measure 18
0000
1000
0000
0100
,  // measure 19
0100
0000
0001
0000
,  // measure 20
0010
0000
1000
0000
,  // measure 21
0100
0100
0000
0001
,  // measure 22
0000
1000
0000
0010
,  // measure 23
0010
0000
1000
0000
,  // measure 24
0001
0000
0100
0000
,  // measure 25
0001
0001
0000
0001
,  // measure 26
0000
0010
0000
0100
,  // measure 27
0100
0000
1000
0000
,  // measure 28
0100
0000
0001
0000
,  // measure 29
1000
0000
0001
0000
,  // measure 30
1000
0000
0001
0000
,  // measure 31
1000
0000
0100
0000
,  // measure 32
0010
0000
0001
0000
,  // measure 33
0100
0000
0010
0000
,  // measure 34
0100
0000
0010
0000
,  // measure 35
0100
0000
1000
0000
,  // measure 36
0010
0000
0001
0000
,  // measure 37
0110
0000
0100
0000
,  // measure 38
1000
0000
0001
0000
,  // measure 39
0001
0000
1000
0000
,  // measure 40
0010
0000
0100
0000
,  // measure 41
0100
0000
0010
0000
,  // measure 42
0100
0000
0010
0000
,  // measure 43
0100
0000
0001
0000
,  // measure 44
0010
0000
1000
0000
,  // measure 45
1000
0000
0001
0000
,  // measure 46
1000
0000
0001
0001
,  // measure 47
0001
0000
0100
0000
,  // measure 48
0010
0000
1000
1000
,  // measure 49
1000
0000
0100
0000
,  // measure 50
0001
0000
0010
0010
,  // measure 51
0010
0000
0001
0000
,  // measure 52
0100
0000
1000
0000
,  // measure 53
0001
0000
0001
0000
,  // measure 54
1000
1000
1000
1000
;
