#TITLE:DROP THE BOMB(X-Special);
#SUBTITLE:;
#ARTIST:Scotty D.;
#TITLETRANSLIT:;
#SUBTITLETRANSLIT:;
#ARTISTTRANSLIT:;
#GENRE:;
#CREDIT:;
#MENUCOLOR:;
#BANNER:DROP THE BOMB(X-Special).png;
#BACKGROUND:DROP THE BOMB(X-Special)-bg.png;
#LYRICSPATH:DROP THE BOMB(X-Special).lrc;
#CDTITLE:./CDTITLES/DANCE DANCE REVOLUTION HOME VERSION.PNG;
#MUSIC:DROP THE BOMB(X-Special).mp3;
#OFFSET:-0.058;
#SAMPLESTART:35.960;
#SAMPLELENGTH:15.000;
#SELECTABLE:YES;
#LISTSORT:;
#DISPLAYBPM:150.000;
#BPMS:0.000=150.140;
#STOPS:;
#TICKCOUNT:0.000=2;
#BGCHANGES:19.750=Geometry1.avi=1.000=1=0=0,
27.750=Bluey1A.avi=1.000=0=0=1,
31.750=Emi5.avi=1.000=0=0=0,
35.750=Bluey1B.avi=1.000=0=0=1,
39.750=Emi6.avi=1.000=0=1=0,
43.750=Bluey1A.avi=1.000=0=1=1,
47.750=Emi5.avi=1.000=0=1=0,
51.750=Bluey1B.avi=1.000=0=1=1,
55.750=Emi6.avi=1.000=0=1=0,
59.750=Bluey1A.avi=1.000=0=1=1,
63.750=Emi5.avi=1.000=0=1=0,
67.750=Bluey1B.avi=1.000=0=1=1,
71.750=Emi6.avi=1.000=0=1=0,
75.750=Bluey1A.avi=1.000=0=1=1,
79.750=Emi5.avi=1.000=0=1=0,
83.750=Bluey1B.avi=1.000=0=1=1,
87.750=Emi6.avi=1.000=0=1=0,
91.750=Wheel4.avi=1.000=0=0=1,
99.750=Tunnel3.avi=1.000=0=0=1,
107.750=Wheel4.avi=1.000=0=1=1,
115.750=Tunnel3.avi=1.000=0=1=1,
123.750=Geometry1.avi=1.000=0=0=0,
127.750=Bluey1A.avi=1.000=0=1=1,
131.750=Emi5.avi=1.000=0=1=0,
135.750=Bluey1B.avi=1.000=0=1=1,
139.750=Emi6.avi=1.000=0=1=0,
143.750=Bluey1A.avi=1.000=0=1=1,
147.750=Emi5.avi=1.000=0=1=0,
151.750=Bluey1B.avi=1.000=0=1=1,
155.750=Emi6.avi=1.000=0=1=0,
159.750=Bluey1A.avi=1.000=0=1=1,
163.750=Emi5.avi=1.000=0=1=0,
167.750=Bluey1B.avi=1.000=0=1=1,
171.750=Emi6.avi=1.000=0=1=0,
175.750=Geometry1.avi=1.000=0=0=0,
183.750=Wheel4.avi=1.000=0=1=1,
191.750=Tunnel3.avi=1.000=0=1=1,
199.750=Wheel4.avi=1.000=0=1=1,
207.750=Tunnel3.avi=1.000=0=1=1,
215.750=Wheel4.avi=1.000=0=1=1,
223.750=Tunnel3.avi=1.000=0=1=1,
224.750=DROP THE BOMB(X-Special)-bg.png=1.000=0=0=1,;
#KEYSOUNDS:;
#ATTACKS:;

//---------------dance-single - X-SPECIAL----------------
#NOTES:
     dance-single:
     X-SPECIAL:
     Edit:
     12:
     0.560,0.654,0.380,0.032,0.206: // measure 1
0000
0000
0000
0000
,  // measure 2
0000
0000
0000
0000
,  // measure 3
0000
0000
0000
0000
,  // measure 4
0000
0000
0000
0000
,  // measure 5
0000
0000
0000
0000
,  // measure 6
0200
0000
0010
0000
,  // measure 7
0010
0000
0310
0000
,  // measure 8
0010
1000
0010
1000
0010
0000
1000
0000
0100
0000
0010
0000
0001
0000
0000
0000
,  // measure 9
0001
1000
0100
1000
0001
0100
0010
0000
,  // measure 10
0100
0001
0100
0000
0001
0000
0100
0000
0010
0000
1000
0000
0001
0000
0000
0000
,  // measure 11
0010
1000
0010
0000
0100
0010
0100
0000
0001
0100
0001
0000
1000
0001
1000
0000
,  // measure 12
1001
0000
0000
0000
1000
0000
0100
1000
0100
0000
0000
0000
0001
0000
0100
0001
,  // measure 13
0100
0000
0010
0100
1000
0001
0010
0100
,  // measure 14
1000
0001
0010
0001
0100
0001
0010
0001
,  // measure 15
1000
0100
1000
0000
0100
0000
1000
0000
0001
0000
0010
0000
1000
0000
0100
0000
,  // measure 16
1001
0000
MMMM
0100
0000
0010
0000
1000
,  // measure 17
1001
0000
MMMM
0010
0000
0100
0000
0001
,  // measure 18
1000
0010
1000
0010
0001
0010
0001
0010
,  // measure 19
1000
0100
1000
0100
0001
0100
0001
0000
,  // measure 20
0110
0000
MMMM
0100
0000
0001
0000
1000
,  // measure 21
0110
0000
MMMM
0010
0000
1000
0000
0001
,  // measure 22
0010
0001
1000
0100
1000
0001
0010
0001
,  // measure 23
1000
0010
1000
0001
0100
0100
0010
0010
,  // measure 24
1000
0000
0100
0000
0010
0000
0001
0000
0000
0001
0010
0000
0001
0000
0100
0000
,  // measure 25
0010
0000
0100
0000
0001
0000
1000
0000
0000
0001
0100
0000
0010
0000
1000
0000
,  // measure 26
0001
0000
0100
0000
0001
0000
1000
0000
0000
0100
1000
0000
0001
0000
0010
0000
,  // measure 27
0001
0000
0010
0000
0100
0000
1000
0000
0000
0010
1000
0000
0010
0000
0100
0000
,  // measure 28
0001
0000
0100
0000
0010
0000
1000
0000
0000
0100
1000
0000
0001
0000
0010
0000
,  // measure 29
0001
0000
1000
0000
0010
0000
0100
0000
0000
1000
0100
0000
0001
0000
0100
0000
,  // measure 30
0010
0000
1000
0000
0001
0000
0010
0000
0000
0100
1000
0000
0001
0000
0010
0000
,  // measure 31
0001
0000
0100
0000
0010
0000
1000
0000
0000
1000
0001
0000
0100
0000
0010
0000
,  // measure 32
2002
0000
0000
3003
,  // measure 33
1001
0000
0000
1100
0000
0000
0101
0000
1001
0000
0000
0000
MMMM
0000
0000
0000
,  // measure 34
1001
0000
0000
0011
0000
0000
1010
0000
1001
0000
0000
0000
MMMM
0000
0000
0000
,  // measure 35
0110
0000
0000
1010
0000
0000
1100
0000
0110
0000
0000
0000
MMMM
0000
0000
0000
,  // measure 36
0110
0000
0000
0011
0000
0000
0101
0000
0110
0000
0000
0000
MMMM
0000
0000
0000
,  // measure 37
1001
0000
MMMM
0100
0000
0010
0000
1000
,  // measure 38
1001
0000
MMMM
0010
0000
0100
0000
0001
,  // measure 39
1000
0100
1000
0100
0010
0100
1000
0000
,  // measure 40
0001
0100
0001
0100
0010
0100
0001
0000
,  // measure 41
0110
0001
1000
0100
,  // measure 42
0110
0001
1000
0010
,  // measure 43
1000
0010
1000
0010
0100
0001
0100
0001
,  // measure 44
1000
0100
1000
0100
0010
0001
0010
0000
,  // measure 45
1001
0000
0000
0101
0000
0000
1100
0000
1001
0000
0000
0000
MMMM
0000
0000
0000
,  // measure 46
1001
0000
0000
0011
0000
0000
1010
0000
1001
0000
0000
0000
MMMM
0000
0000
0000
,  // measure 47
0010
0000
0100
0000
0001
0000
1000
0000
0000
0001
0100
0000
1000
0000
0100
0000
,  // measure 48
0001
0000
1000
0000
0100
0000
0010
0000
0000
0010
0001
0000
1000
0000
0010
0000
,  // measure 49
0001
0000
1000
0000
0100
0000
0010
0000
0000
0001
0100
0000
0010
0000
1000
0000
,  // measure 50
0001
0000
0100
0000
1000
0000
0100
0000
0000
0100
1000
0000
0001
0000
0010
0000
,  // measure 51
1000
0000
0100
0000
0010
0000
0001
0000
0000
0010
0001
0000
0100
0000
1000
0000
,  // measure 52
0100
0000
0010
0000
1000
0000
0100
0000
0000
1000
0001
0000
0010
0000
0100
0000
,  // measure 53
1000
0000
0001
0000
0010
0000
0100
0000
0000
1000
0001
0000
0100
0000
0010
0000
,  // measure 54
0110
0000
MMMM
1000
0000
0001
0100
0010
,  // measure 55
1000
0000
MMMM
1000
0000
0100
0010
0001
,  // measure 56
1000
0100
0010
0001
1000
0100
0010
0001
1000
0100
0010
0001
,  // measure 57
0000
0110
0000
0000
;
