#TITLE:Boom Boom Pow;
#SUBTITLE:;
#ARTIST:The Black Eyed Peas;
#TITLETRANSLIT:;
#SUBTITLETRANSLIT:;
#ARTISTTRANSLIT:;
#GENRE:;
#CREDIT:;
#MENUCOLOR:;
#BANNER:Boom Boom Pow.png;
#BACKGROUND:Boom Boom Pow-BG.png;
#LYRICSPATH:;
#CDTITLE:;
#MUSIC:Boom Boom Pow.mp3;
#OFFSET:-6.923;
#SAMPLESTART:38.289;
#SAMPLELENGTH:12.000;
#SELECTABLE:YES;
#LISTSORT:;
#BPMS:0.000=130.000;
#STOPS:154.000=0.923
,175.500=0.923
;
#TICKCOUNT:0.000=2;
#BGCHANGES:-15=Boom Boom Pow.avi=1=0=0=0 99999.000=-nosongbg-=1.000=0=0=0;
#KEYSOUNDS:;
#ATTACKS:;

//---------------dance-single - HEAVY----------------
#NOTES:
     dance-single:
     HEAVY:
     Hard:
     9:
     0.610,0.558,0.644,0.059,0.357:
0000
0000
0000
0000
,
0001
0000
0100
0001
0000
0100
0010
0000
0000
0000
1000
0000
0010
0000
0100
0000
,
1000
0000
0100
0010
0000
0001
0100
0000
0000
0000
0010
0000
0001
0000
0100
0000
,
0101
0000
0000
0101
0000
0000
1020
0000
0000
0000
0100
0000
0130
0000
0000
0000
,
1100
0000
0000
1100
0000
0000
0021
0000
0000
0000
0100
0000
0130
0000
0000
0000
,
0001
0000
0010
0100
0000
0000
1000
0000
0000
0000
1000
0000
0100
0000
0010
0000
,
0001
0000
1000
0100
0000
0000
1000
0000
0000
0000
0001
0000
0100
0000
1000
0000
,
0101
0000
0000
1100
0000
0000
0102
0000
0000
0000
1003
0000
0010
0000
0100
0000
,
1100
0000
0000
0101
0000
0000
2100
0000
0000
0000
3001
0000
0010
0000
0100
0000
,
1100
0000
0000
1100
0000
0000
1010
0000
0000
0000
1000
0000
0010
0000
0100
0000
,
0101
0000
0000
0101
0000
0000
0011
0000
0000
0000
0010
0000
0001
0000
0100
0000
,
0101
0000
0000
1100
0000
0000
0001
0000
1000
0000
0100
0000
0010
0000
0001
0000
,
1010
0000
0000
1001
0000
0000
1100
0000
0000
0000
0010
0000
0100
0000
1000
0000
,
0001
0000
0001
0100
0000
0000
0010
0000
0000
0000
1000
0000
0001
0000
0100
0000
,
1000
0000
1000
0100
0000
0000
0010
0000
0000
0000
0001
0000
0100
0000
0010
0000
,
0101
0000
0000
1010
0000
0000
0101
0000
0000
0000
0010
0000
1000
0000
0001
0000
,
0100
0000
0000
1000
0100
0000
0010
0000
0000
0000
0001
0000
0100
0000
0010
0000
,
0101
0000
0000
1010
0000
0000
0101
0000
0000
0000
0010
1000
0010
0000
0100
0000
,
1100
0000
0000
1100
0000
0000
0011
0000
0000
0000
0010
0001
0010
0000
0001
0000
,
1001
0000
0000
1001
0000
0000
0110
0000
0000
0000
0100
0010
0100
0000
0001
0000
,
0101
0000
0000
0101
0000
0000
1010
0000
0000
0000
0100
0010
0100
0000
1000
0000
,
1001
0000
0000
1001
0000
0000
1100
0000
0000
0000
0010
0000
0000
0000
0001
0000
,
1001
0000
0000
1001
0000
0000
0101
0000
0000
0000
0010
0000
0000
0000
1000
0000
,
0101
0000
0000
0101
0000
0000
1010
0000
0000
0000
1000
0000
0000
0000
0001
0000
,
0010
0000
0000
0010
0001
0000
0100
0000
0000
0000
0010
0000
1000
0000
0001
0000
,
0100
0000
1000
0000
0010
1000
0010
0000
0100
1000
0100
0000
0010
0001
0010
0000
,
1000
0000
0001
0000
1000
0100
1000
0000
0001
0010
0001
0000
0100
0010
0100
0000
,
0001
0000
1000
0000
0001
0100
0001
0000
1000
0010
1000
0000
0010
0100
0010
0000
,
0100
0001
1000
0010
0100
0100
0010
0000
,
1000
0000
0001
0000
1000
0100
1000
0000
0001
0010
0001
0000
0100
0010
0100
0000
,
0001
1000
0001
0100
1000
0100
0001
0000
,
0010
0000
0100
0000
0010
1000
0010
0000
0100
0001
0100
0000
0010
1000
0010
0000
,
1000
0000
0000
1000
0100
0000
0010
0000
0000
0000
0001
0000
0010
0000
0100
0000
,
1000
0100
1000
0000
0100
1000
0100
0000
0001
0010
0001
0000
0010
0001
0010
0000
,
0001
0100
0010
1000
1001
0000
0110
0000
,
0010
0000
0100
0000
0001
0000
1000
0000
0010
0100
0010
0000
0100
0010
0100
0000
,
0001
0100
0010
1000
1100
0000
0101
0000
,
1000
0000
0010
1000
0010
0000
0001
0000
0011
0000
0000
0000
1010
0000
0000
0000
,
0001
0000
1000
0010
1000
0000
1000
0001
1000
0000
0010
0000
0001
0000
1000
0000
,
0010
1000
0001
0100
0000
0010
0001
0100
,
1100
0000
0000
0000
0101
0000
0000
0000
0100
0010
1000
0000
0001
1000
0100
0000
,
0100
0010
0001
0000
1000
0001
0100
0000
0010
0001
0100
0000
1000
0000
0001
0000
,
0101
0000
0000
0000
1100
0000
0000
0000
0001
0100
1000
0000
0010
0100
0001
0000
,
1000
0100
0001
0000
0010
0100
0001
0000
1000
0001
1000
0001
1000
0000
0001
0000
,
1000
0100
1000
0000
0001
0010
0001
0000
0001
0100
0001
0000
0010
0100
0010
0000
,
1000
0010
1000
0000
0001
0000
1000
0000
1010
0000
0000
0000
0101
0000
0000
0000
,
1000
0001
0010
1000
0001
0100
1000
0100
,
1100
0000
0000
1100
0000
0000
0101
0000
0000
0000
0101
0000
0110
0000
0000
0000
,
0220
0000
0000
0000
,
0330
0000
0000
0000
;

//---------------dance-single - LIGHT----------------
#NOTES:
     dance-single:
     LIGHT:
     Easy:
     3:
     0.272,0.316,0.119,0.129,0.000:
0000
0000
0000
0000
,
1000
1000
0001
0000
,
0001
0001
1000
0000
,
0100
0100
0020
0030
,
0100
0100
0020
0030
,
0001
0100
0001
0000
,
1000
0100
1000
0000
,
0001
0001
0001
0000
,
1000
0000
0000
1000
0000
0000
1000
0000
,
0010
1000
0010
0100
,
0010
1000
0100
0010
,
0001
0010
0001
0100
,
0010
1000
0100
0000
,
1000
0100
0001
0000
,
0001
0100
1000
0000
,
0001
0001
1000
0000
,
0001
0000
0000
0001
0000
0000
0001
0000
,
0100
0100
0020
0130
,
0100
0100
0020
0130
,
0001
0001
0020
0031
,
1000
1000
0020
1030
,
0100
0100
2000
3000
,
0100
0100
0002
0003
,
0010
0010
0200
0300
,
0010
0000
0000
0010
0000
0000
0010
0000
,
0001
0001
1000
1000
,
0001
0001
1000
0001
,
1000
1000
0010
0010
,
1000
0100
0010
0001
,
0200
0300
0010
0010
,
0100
0100
0010
0100
,
0002
0003
1000
1000
,
0010
1000
0010
1000
,
0001
0001
1000
1000
,
0001
1000
1001
0110
,
0001
0001
0010
0010
,
0001
1000
1001
0110
,
1000
0001
0110
1001
,
0010
0100
1001
0010
,
0010
0010
0000
0100
,
0110
1001
1000
1000
,
0100
0100
1000
1000
,
0010
1000
0100
0100
,
0001
0001
0010
0010
,
0100
0100
1000
1000
,
0100
1000
0010
1000
,
0000
0010
0010
0010
,
0000
0100
0110
1001
,
0220
0000
0000
0000
,
0330
0000
0000
0000
;

//---------------dance-single - STANDARD----------------
#NOTES:
     dance-single:
     STANDARD:
     Medium:
     6:
     0.408,0.437,0.188,0.050,0.114:
0000
0000
0000
0000
,
0100
0000
0000
1000
0000
0000
0100
0000
0000
0000
0010
0000
0001
0000
0000
0000
,
0001
0000
0000
0001
0000
0000
0100
0000
0000
0000
0010
0000
1000
0000
0000
0000
,
0100
0000
0000
0100
0000
0000
0020
0000
0000
0000
0100
0000
0130
0000
0000
0000
,
0100
0000
0000
0100
0000
0000
0020
0000
0000
0000
0100
0000
0130
0000
0000
0000
,
1000
0000
0000
0001
0000
0000
1000
0000
0000
0000
0001
0000
0100
0000
0000
0000
,
1000
0000
0000
0001
0000
0000
0100
0000
0000
0000
0001
0000
1000
0000
0000
0000
,
0100
0000
0000
0100
0000
0000
0020
0000
0000
0000
0100
0000
0130
0000
0000
0000
,
0001
0000
0000
0001
0000
0000
1000
0000
0000
0000
1000
0000
0100
0000
0000
0000
,
0001
0000
0000
0001
0000
0000
1000
0000
0000
0000
0010
0000
1000
0000
0000
0000
,
0100
0000
0000
0100
0000
0000
0001
0000
0000
0000
1000
0000
0001
0000
0000
0000
,
0100
0000
0000
0100
0000
0000
1000
0000
0000
0000
0001
0000
0100
0000
0000
0000
,
0001
0000
0000
0001
0000
0000
1000
0000
0000
0000
0010
0000
1000
0000
0000
0000
,
0001
0000
0100
0001
0000
0010
1000
0000
,
0100
0000
1000
0100
0000
0010
0001
0000
,
0100
0000
0000
0100
0000
0000
0100
0000
0000
0000
0010
0000
1000
0000
0000
0000
,
0001
0000
0000
0001
0000
0000
0001
0000
0000
0000
1000
0000
0001
0000
1000
0000
,
0100
0000
0000
0100
0000
0000
0010
0000
0000
0000
0001
0000
1000
0000
0000
0000
,
0100
0000
0000
0100
0000
0000
0010
0000
0000
0000
1000
0000
0001
0000
0000
0000
,
0100
0000
0000
0100
0000
0000
0001
0000
0000
0000
0010
0000
1000
0000
0000
0000
,
0100
0000
0000
0100
0000
0000
1000
0000
0000
0000
0010
0000
0001
0000
0000
0000
,
1000
0000
0000
0100
0000
0000
1000
0000
0000
0000
0010
0000
0000
0000
0001
0000
,
0100
0000
0000
0001
0000
0000
1000
0000
0000
0000
0001
0000
0000
0000
1000
0000
,
0010
0000
0000
1000
0000
0000
0100
0000
0000
0000
0010
0000
0000
0000
0001
0000
,
0101
0000
0000
0101
0000
0000
0101
0000
0000
0000
0010
0000
0100
0000
0000
0000
,
0001
0100
0001
0000
0001
1000
0100
0000
,
1000
0100
1000
0000
1000
0001
0100
0000
,
0001
0010
0001
0000
1000
0010
1000
0000
,
0001
0100
0010
1000
0100
0010
0001
0000
,
0100
0010
0100
0000
1000
0001
1000
0000
,
0100
0001
0010
0100
0010
0100
1000
0000
,
0010
1000
0010
0000
0100
0001
0100
0000
,
1000
0000
0000
0001
0000
0000
1000
0000
0000
0000
0001
0000
0100
0000
0000
0000
,
1000
0100
1000
0000
0001
0100
0001
0000
,
1000
0001
1000
0001
1001
0000
1001
0000
,
0010
0001
0010
0000
0010
1000
0010
0000
,
0010
0100
0010
0100
0110
0000
0110
0000
,
1000
0100
0010
0001
0101
0000
1100
0000
,
0010
0100
1000
0001
1001
0010
0010
1000
,
1000
0001
0001
0100
0000
0010
0010
0001
,
1100
0000
0101
0000
1000
0100
1000
0000
,
0010
0001
0010
0000
1000
0100
0010
0001
,
0101
0000
1010
0000
0001
0100
0001
0000
,
0010
1000
0010
0000
0010
1000
0100
1000
,
0001
0100
0001
0000
1000
0010
1000
0000
,
1000
0010
0100
0001
1100
0000
0011
0000
,
0000
1000
0100
0010
0001
0001
1000
1000
,
0000
0010
0001
1000
1100
0000
0101
0000
,
2002
0000
0000
0000
,
3003
0000
0000
0000
;

//---------------dance-single - BEGINNER----------------
#NOTES:
     dance-single:
     BEGINNER:
     Beginner:
     2:
     0.177,0.238,0.089,0.000,0.000: // measure 1
0000
0000
0000
0000
,  // measure 2
1000
1000
1000
0000
,  // measure 3
0001
0001
0001
0000
,  // measure 4
0010
0010
0010
0000
,  // measure 5
0010
0010
0010
0000
,  // measure 6
0001
0001
0001
0000
,  // measure 7
1000
1000
1000
0000
,  // measure 8
0001
0001
0001
0000
,  // measure 9
1000
1000
1000
0000
,  // measure 10
0010
0010
0010
0000
,  // measure 11
1000
1000
1000
0000
,  // measure 12
0001
0001
0001
0000
,  // measure 13
0100
0100
0100
0000
,  // measure 14
1000
1000
1000
0000
,  // measure 15
0001
0001
0001
0000
,  // measure 16
1000
1000
1000
0000
,  // measure 17
0001
0001
0001
0000
,  // measure 18
0100
0000
0010
0000
,  // measure 19
0100
0000
0010
0000
,  // measure 20
0001
0000
0010
0000
,  // measure 21
1000
0000
0010
0000
,  // measure 22
0100
0000
1000
0000
,  // measure 23
0100
0000
0001
0000
,  // measure 24
0010
0000
0100
0000
,  // measure 25
0010
0010
0010
0000
,  // measure 26
0001
0000
1000
0000
,  // measure 27
0001
0000
1000
0000
,  // measure 28
0001
0000
0010
0000
,  // measure 29
1000
0000
0010
0000
,  // measure 30
0100
0000
0010
0000
,  // measure 31
0100
0000
0010
0000
,  // measure 32
0001
0000
1000
0000
,  // measure 33
0010
0000
0010
0000
,  // measure 34
0001
0000
1000
0000
,  // measure 35
0001
0000
1001
1001
,  // measure 36
1001
0000
0010
0000
,  // measure 37
1000
0000
0110
0110
,  // measure 38
0110
0000
0110
0000
,  // measure 39
0010
0000
1001
0000
,  // measure 40
0010
0010
0000
0100
,  // measure 41
0100
0000
1000
0000
,  // measure 42
0100
0000
1000
0000
,  // measure 43
0010
0000
0100
0000
,  // measure 44
0001
0000
0010
0000
,  // measure 45
0100
0000
1000
0000
,  // measure 46
0100
0000
0010
0000
,  // measure 47
0000
0010
0010
0010
,  // measure 48
0000
0100
0100
0000
,  // measure 49
0110
0000
0000
0000
;
