#TITLE:Boom Boom Dollar;
#SUBTITLE:(Red Monster Mix);
#ARTIST:King Kong & D.Jungle Girls;
#TITLETRANSLIT:;
#SUBTITLETRANSLIT:;
#ARTISTTRANSLIT:;
#GENRE:;
#CREDIT:;
#MENUCOLOR:;
#BANNER:Boom Boom Dollar (Red Monster Mix).png;
#BACKGROUND:Boom Boom Dollar (Red Monster Mix)-bg.png;
#LYRICSPATH:Boom Boom Dollar (Red Monster Mix).lrc;
#CDTITLE:./CDTITLES/DANCEMANIA SUPER CLASSICS 1.PNG;
#MUSIC:Boom Boom Dollar (Red Monster Mix).mp3;
#OFFSET:-0.210;
#SAMPLESTART:49.900;
#SAMPLELENGTH:12.000;
#SELECTABLE:YES;
#LISTSORT:;
#DISPLAYBPM:135.000;
#BPMS:0.000=135.130;
#STOPS:;
#BGCHANGES:;
#ATTACKS:;

//---------------dance-single - BEGINNER----------------
#NOTES:
     dance-single:
     BEGINNER:
     Beginner:
     1:
     0.159,0.219,0.000,0.041,0.000:
0000
0000
0000
0000
,
0000
0000
0000
0000
,
0000
0000
0000
0000
,
0000
0000
0000
0000
,
0000
0001
0000
0001
,
0000
1000
0000
1000
,
0000
0001
0000
0001
,
0001
0000
0000
0000
,
0000
0100
0000
0100
,
0000
0010
0000
0010
,
0000
1000
0000
1000
,
0000
0010
0010
0010
,
0010
0000
0000
0000
,
0100
0000
0000
0000
,
1000
0000
0000
0000
,
0001
0001
0001
0001
,
0001
0000
0000
0000
,
0010
0000
0000
0000
,
0001
0000
0000
0000
,
0100
0100
0100
0100
,
0000
0001
0000
0100
,
0000
1000
0000
0010
,
0000
0001
0000
0010
,
0000
0000
0001
0001
,
0000
1000
0000
1000
,
0000
0001
0000
0001
,
0000
1000
0000
0000
,
0001
0001
0001
0001
,
0000
0010
0000
1000
,
0000
0000
0000
0000
,
0100
0100
0000
0100
,
0000
1000
0000
0010
,
0010
0010
0010
0010
,
0000
0010
0000
0001
,
0002
0000
0003
0000
,
2000
0000
3000
0000
,
0000
1000
0000
1000
,
0000
0001
0000
0001
,
0000
0100
0000
0100
,
0000
0010
0000
0010
,
0000
1000
0000
1000
,
0000
0001
0000
0001
,
0000
0010
0000
0010
,
0010
0000
0010
0000
,
1000
1000
1000
1000
,
0000
0010
0000
0100
,
0100
0100
0100
0100
,
0000
1000
0000
0001
,
0001
0001
0001
0001
,
0000
1000
0000
0000
,
0020
0000
0030
0000
,
2000
0000
3000
0000
,
1000
1000
1000
1000
,
1000
1000
1000
1000
;

//---------------dance-single - BASIC----------------
#NOTES:
     dance-single:
     BASIC:
     Easy:
     2:
     0.236,0.247,0.000,0.194,0.000:
0000
0000
0000
0000
,
0000
0000
0000
0000
,
0000
0000
0000
0000
,
0000
0000
0000
0000
,
0001
1000
0001
1000
,
0001
0001
1000
1000
,
0001
1000
0002
0003
,
1000
0001
2000
3000
,
0100
0010
0100
0010
,
0100
0100
0010
0010
,
0001
1000
0001
1000
,
0001
0001
1000
1000
,
0010
0000
0100
0000
,
0001
0000
1000
0000
,
0001
0000
0100
0000
,
1000
0001
1000
0001
,
0100
0000
1000
0000
,
0010
0000
0001
0000
,
1000
0000
0100
0000
,
0001
1000
0001
1000
,
0100
0000
0010
0000
,
0010
0000
0100
0000
,
1000
0000
0001
0000
,
1000
0000
0001
0000
,
0100
0000
1000
0000
,
0100
0000
0001
0000
,
0010
0000
1000
0000
,
0002
0000
0003
0000
,
1000
0001
1000
0001
,
1000
0001
2000
3000
,
0001
1000
0001
1000
,
0001
1000
0002
0003
,
1000
0001
1000
0001
,
1000
0001
2000
3000
,
0020
0000
0030
0000
,
0200
0000
0300
0000
,
0001
1000
0002
0003
,
1000
0001
2000
3000
,
0001
1000
0010
0000
,
1000
0001
0100
0000
,
1000
0001
2000
3000
,
0001
1000
0001
0001
,
2000
3000
0002
0003
,
0100
0010
0100
0010
,
1000
0001
1000
0001
,
2000
3000
2000
3000
,
0001
1000
0001
1000
,
0002
0003
0002
0003
,
1000
1000
0001
0001
,
1000
0001
1000
0001
,
0020
0000
0030
0000
,
0200
0000
0300
0000
,
0010
0010
0010
0010
,
0100
0100
0100
0100
;

//---------------dance-single - DIFFICULT----------------
#NOTES:
     dance-single:
     DIFFICULT:
     Medium:
     5:
     0.347,0.356,0.041,0.163,0.000: // measure 1
0000
0000
0000
0000
,  // measure 2
0000
0000
0000
0000
,  // measure 3
0000
0000
0000
0000
,  // measure 4
0000
0000
0000
0000
,  // measure 5
0001
1000
0002
1003
,  // measure 6
1000
0001
2000
3001
,  // measure 7
1000
0100
0001
0100
,  // measure 8
1000
1000
1000
0000
0001
0001
0001
0000
,  // measure 9
0100
0010
0200
0310
,  // measure 10
0010
0100
0020
0130
,  // measure 11
0001
1000
0001
1000
,  // measure 12
0001
0001
0001
0000
1000
1000
1000
0000
,  // measure 13
0000
0010
0001
0010
,  // measure 14
1000
0010
1000
0010
,  // measure 15
0001
0010
0001
0000
,  // measure 16
0010
0001
0100
1000
0100
0001
0010
0000
,  // measure 17
1000
0100
0001
0100
,  // measure 18
1000
0010
1000
0010
,  // measure 19
0001
0010
1000
0000
,  // measure 20
0010
1000
0100
0001
0100
1000
0010
0000
,  // measure 21
1000
0010
1001
0000
,  // measure 22
0010
0010
1000
0100
,  // measure 23
0001
0010
0001
0000
0100
0000
1000
0000
,  // measure 24
1000
0000
0100
0000
0001
0000
0001
0100
,  // measure 25
1000
0000
0100
0000
0001
0000
1000
0100
,  // measure 26
0001
0000
0100
0000
1000
0000
0010
1000
,  // measure 27
0001
1000
0100
0001
,  // measure 28
0100
1000
0001
0000
,  // measure 29
0010
1000
0010
1001
,  // measure 30
0010
0000
0010
0000
2000
0100
3000
0000
,  // measure 31
0010
0001
0010
1000
,  // measure 32
1000
0100
0001
0000
0100
1000
0010
0000
,  // measure 33
0010
0001
0010
1000
,  // measure 34
0100
0001
0100
1000
,  // measure 35
0020
0000
0000
0030
,  // measure 36
0200
0000
0000
0300
,  // measure 37
1000
0001
2000
3001
,  // measure 38
0001
1000
0002
1003
,  // measure 39
0001
1000
0010
0100
,  // measure 40
0001
0100
0010
0000
1000
0010
0100
0000
,  // measure 41
0001
0100
0020
1030
,  // measure 42
1000
0100
2000
3010
,  // measure 43
0100
0001
0020
0130
,  // measure 44
1000
1000
1000
0000
0001
0001
0001
0000
,  // measure 45
0010
1000
0010
0001
,  // measure 46
0200
0310
0200
0310
,  // measure 47
1000
0100
0001
0000
0001
0100
1000
0000
,  // measure 48
0020
0130
0020
0130
,  // measure 49
0100
0001
0010
0000
0001
1000
0100
0000
,  // measure 50
0001
0000
0001
0000
1000
0001
1000
0000
,  // measure 51
0001
0100
1000
0000
1000
0100
0001
0000
,  // measure 52
0100
1000
0001
0100
,  // measure 53
0010
0010
1100
0101
,  // measure 54
0100
1000
0100
0001
0100
0000
0100
0000
;

//---------------dance-single - EXPERT----------------
#NOTES:
     dance-single:
     EXPERT:
     Hard:
     6:
     0.437,0.466,0.133,0.214,0.000: // measure 1
0000
0000
0000
0000
,  // measure 2
0000
0000
0000
0000
,  // measure 3
0000
0000
0000
0000
,  // measure 4
0000
0000
0000
0000
,  // measure 5
1001
0010
0002
1003
,  // measure 6
0001
0000
0010
0000
0001
0100
0010
0000
,  // measure 7
1000
0000
0010
0000
0100
0010
1000
0000
,  // measure 8
0001
0100
1000
0000
0001
0010
1000
0000
,  // measure 9
0110
1000
0200
0310
,  // measure 10
0001
1000
0020
0130
,  // measure 11
0001
0000
1000
0000
0010
1000
0100
0000
,  // measure 12
0010
0001
0100
0000
0010
1000
0100
0000
,  // measure 13
0000
0000
0001
0000
0010
1000
0100
0000
,  // measure 14
1000
0000
0010
0000
1000
0010
0001
0000
,  // measure 15
0001
0010
1000
0000
0001
0001
0100
0000
,  // measure 16
0010
1000
0100
0001
0100
1000
0020
0000
,  // measure 17
1030
0000
0100
0000
0001
0001
0100
0000
,  // measure 18
1000
0000
0010
0000
1000
0000
0010
0010
,  // measure 19
0002
0000
0013
0010
2000
0000
3001
0000
,  // measure 20
0010
0001
0100
1000
0100
0001
0020
0000
,  // measure 21
0031
0000
0010
0000
1001
0000
0100
0100
,  // measure 22
0010
0000
0010
0000
1000
0000
0100
0100
,  // measure 23
0001
0010
0001
0000
0100
0000
1000
1000
,  // measure 24
0100
0000
0100
0000
0001
0000
0001
0100
,  // measure 25
1000
0000
0100
0000
0001
0000
1000
0100
,  // measure 26
0001
0000
0100
0000
1000
0000
0010
1000
,  // measure 27
0001
0000
1000
0000
0100
0000
0001
1000
,  // measure 28
0100
0000
1000
0000
0001
1000
0001
1000
,  // measure 29
0010
0010
0010
0000
1000
0010
0001
0000
,  // measure 30
0010
0010
0010
0000
2000
0100
3000
0000
,  // measure 31
0001
1000
0010
0000
1000
0001
0010
0000
,  // measure 32
1000
0010
0001
0000
0001
0010
1000
0000
,  // measure 33
0010
0010
1010
0000
1000
0010
0001
0000
,  // measure 34
0010
0010
1010
0000
0001
0010
1000
0000
,  // measure 35
0010
1000
0100
0001
0100
1000
0020
0000
,  // measure 36
0130
1000
0100
0001
0010
0001
0200
0000
,  // measure 37
0310
1000
0200
1300
,  // measure 38
0010
0000
0001
0000
0100
0001
0010
0000
,  // measure 39
0100
1000
0020
1030
,  // measure 40
0001
0100
1000
0000
0001
0010
1000
0000
,  // measure 41
0110
0001
2000
3001
,  // measure 42
0100
0010
0200
0301
,  // measure 43
0010
0000
0001
0000
0010
1000
0100
0000
,  // measure 44
0001
0100
1000
0100
0001
0010
1000
0000
,  // measure 45
2100
3100
2010
3010
,  // measure 46
0010
0000
0010
0010
0010
1000
0010
0000
,  // measure 47
2100
3100
0102
0103
,  // measure 48
0010
0000
0010
0010
0010
1000
0010
0000
,  // measure 49
1020
1030
0021
0031
,  // measure 50
0001
0001
1000
0001
,  // measure 51
0010
1000
0100
0001
0100
1000
0020
0000
,  // measure 52
0130
1000
0100
0001
0010
0001
0100
0000
,  // measure 53
0100
0000
0100
0000
0100
1000
0001
0000
,  // measure 54
0100
1000
0100
0001
0100
0000
1001
0000
;

//---------------dance-single - CHALLENGE----------------
#NOTES:
     dance-single:
     CHALLENGE:
     Challenge:
     8:
     0.529,0.494,0.173,0.184,0.046: // measure 1
0000
0000
0000
0000
,  // measure 2
0000
0000
0000
0000
,  // measure 3
0000
0000
0000
0000
,  // measure 4
0000
0000
0000
0000
,  // measure 5
0000
0000
0010
0000
0100
0000
1000
0000
0010
0000
0000
0100
0000
0000
0001
0000
,  // measure 6
0000
0000
0010
0000
1000
0000
0001
0000
0100
0000
0001
0010
0000
0000
0100
0000
,  // measure 7
0000
1000
0001
0100
0010
0000
1000
0000
,  // measure 8
0001
0001
0100
0100
0010
0010
1000
1000
,  // measure 9
0001
0000
0100
0000
0001
0000
0010
0000
0100
0000
0000
1000
0000
0000
0010
0000
,  // measure 10
0000
0000
1000
0000
0010
0000
0100
0000
0001
0000
1000
0010
0000
0000
0100
0000
,  // measure 11
0000
0010
1000
0100
0010
0000
0001
0000
,  // measure 12
1000
1000
0001
0001
1000
1000
0001
0001
,  // measure 13
1000
0100
0001
0100
1000
0010
0100
0000
,  // measure 14
0010
0100
0001
0010
0100
1000
0010
0000
,  // measure 15
2000
0010
3010
0000
0002
0010
0013
0000
,  // measure 16
1000
0100
0001
0100
1000
0010
0001
0010
,  // measure 17
1000
0100
0010
0001
0100
0010
1000
0000
,  // measure 18
0001
0100
0010
1000
0010
0100
1000
0000
,  // measure 19
0200
0001
0301
0000
0020
1000
1030
0000
,  // measure 20
0100
1000
0010
0001
0010
1000
0100
0001
,  // measure 21
0100
0100
1000
1000
0001
0001
0010
0010
,  // measure 22
0011
0000
1100
0000
0001
0100
1000
0000
,  // measure 23
0010
0010
0100
0100
0010
0010
0100
0100
,  // measure 24
0001
0000
0010
0000
0001
0000
0100
0000
0010
0000
1000
0000
0001
0000
0100
0010
,  // measure 25
1000
0001
1000
0001
0010
0100
0010
0100
,  // measure 26
2000
3001
0020
0130
,  // measure 27
0102
0013
2100
3010
,  // measure 28
1000
1000
0001
0001
0010
0010
0100
0100
,  // measure 29
0120
1030
0120
0031
,  // measure 30
0010
0100
0001
0100
1000
0100
0010
0000
,  // measure 31
0102
0013
2100
3010
,  // measure 32
0001
0100
1000
0000
0001
0010
1000
0000
,  // measure 33
0201
1300
1200
0301
,  // measure 34
0010
0100
0001
1000
0100
0010
0001
0000
,  // measure 35
0010
1000
0100
0001
0100
1000
0020
0000
,  // measure 36
0130
0001
0010
1000
0010
0001
0200
0000
,  // measure 37
0301
0000
0010
0000
0100
0000
1000
0000
0001
0000
0000
0100
0000
0000
0010
0000
,  // measure 38
0000
0000
1000
0000
0001
0000
0100
0000
0010
0000
1000
0100
0000
0000
0010
0000
,  // measure 39
0000
0001
0100
0010
1000
0000
0001
1000
,  // measure 40
0001
0001
0100
0100
0010
0010
1000
1000
,  // measure 41
0010
0000
0100
0000
1000
0000
0100
0000
0010
0000
0000
1000
0000
0000
0001
0000
,  // measure 42
0100
0000
0010
0000
1000
0000
0100
0000
0010
0000
0100
1000
0000
0000
0010
0000
,  // measure 43
0000
1000
0100
0010
0001
0000
1000
0000
,  // measure 44
0010
0010
0100
0100
0010
0010
0100
0100
,  // measure 45
0110
0010
0010
0000
0110
0100
0100
0000
,  // measure 46
0010
1000
0100
0001
0100
1000
0010
0000
,  // measure 47
0101
0100
0100
0000
1100
0100
0100
0000
,  // measure 48
1000
0100
0001
0100
1000
0010
0001
0000
,  // measure 49
1010
0001
0010
0000
0011
1000
0010
0000
,  // measure 50
0001
0100
0010
1000
0001
0010
0100
0000
,  // measure 51
0100
1000
0010
0001
0010
1000
0200
0000
,  // measure 52
1300
0010
0001
0010
1000
0100
0020
0000
,  // measure 53
0031
0100
1000
0100
,  // measure 54
0001
0010
1000
0100
0001
0000
0110
0000
;
