#TITLE:Billie Jean;
#SUBTITLE:;
#ARTIST:Michael Jackson;
#TITLETRANSLIT:;
#SUBTITLETRANSLIT:;
#ARTISTTRANSLIT:;
#GENRE:;
#CREDIT:;
#MENUCOLOR:;
#BANNER:;
#BACKGROUND:;
#LYRICSPATH:;
#CDTITLE:;
#MUSIC:Billie Jean.mp3;
#OFFSET:-0.103;
#SAMPLESTART:65.621;
#SAMPLELENGTH:12.000;
#SELECTABLE:YES;
#LISTSORT:;
#DISPLAYBPM:117.000;
#BPMS:0.000=117.200;
#STOPS:;
#TICKCOUNT:0.000=2;
#BGCHANGES:0.000=Billie Jean.avi=1.000=0=0=0,
99999.000=-nosongbg-=1.000=0=0=0,;
#KEYSOUNDS:;
#ATTACKS:;

//---------------dance-single - LIGHT----------------
#NOTES:
     dance-single:
     LIGHT:
     Easy:
     3:
     0.220,0.311,0.029,0.088,0.000: // measure 1
0000
0000
0000
0000
,  // measure 2
0000
0000
0000
0000
,  // measure 3
0000
0000
0000
0000
,  // measure 4
0000
0000
0000
0000
,  // measure 5
0100
0000
0000
0001
0000
0000
0000
0000
,  // measure 6
0010
0000
0000
1000
0000
0000
0000
0000
,  // measure 7
0100
0000
0000
1000
0000
0000
0000
0000
,  // measure 8
0010
0000
0000
0001
0000
0000
0000
0000
,  // measure 9
0000
0001
0100
0001
,  // measure 10
0001
0010
1000
0100
,  // measure 11
0000
1000
1000
0100
,  // measure 12
1000
0001
0010
0001
,  // measure 13
0100
0000
0100
0010
,  // measure 14
0100
0000
0010
0100
,  // measure 15
0010
0000
0000
1000
0000
0000
0000
0000
,  // measure 16
0100
0000
0000
0001
0000
0000
0000
0000
,  // measure 17
0100
0001
0100
0001
,  // measure 18
0010
0001
1000
1000
,  // measure 19
0000
0010
0100
0010
,  // measure 20
0001
0100
0010
1000
,  // measure 21
0001
0000
0001
1000
,  // measure 22
0001
0000
1000
0001
,  // measure 23
1000
0000
0000
0010
0000
0000
0000
0000
,  // measure 24
0001
0000
0000
0100
0000
0000
0000
0000
,  // measure 25
1000
0100
0010
0100
,  // measure 26
0010
0001
0100
1001
,  // measure 27
0100
0001
1000
0010
,  // measure 28
0100
0000
0020
0030
,  // measure 29
1000
0100
1000
0010
,  // measure 30
1000
0100
0010
0110
,  // measure 31
0001
0100
0001
0000
,  // measure 32
1000
0100
1000
1001
,  // measure 33
0000
0001
0100
0100
,  // measure 34
0010
1000
0100
0010
,  // measure 35
0000
1000
0001
0000
0001
0000
1000
0000
,  // measure 36
0001
0100
1000
0010
,  // measure 37
0002
1003
0002
1003
,  // measure 38
2000
3001
2000
3001
,  // measure 39
0010
0000
2000
3000
,  // measure 40
0100
0010
0001
0100
,  // measure 41
0000
1000
1000
0100
,  // measure 42
0010
0100
1000
0001
,  // measure 43
0000
0010
0100
0000
0010
0000
1000
0000
,  // measure 44
0100
1000
0010
0001
,  // measure 45
0100
0001
0020
1030
,  // measure 46
0100
1000
0020
0031
,  // measure 47
0100
0000
0010
0010
,  // measure 48
1000
0001
0010
0001
,  // measure 49
0200
0000
0000
0000
,  // measure 50
0300
0000
0000
0000
;

//---------------dance-single - STANDARD----------------
#NOTES:
     dance-single:
     STANDARD:
     Medium:
     5:
     0.305,0.311,0.049,0.244,0.000:
0000
0000
0000
0000
,
0000
0000
0000
0000
,
0000
0000
0000
0000
,
0000
0000
0000
0000
,
0200
0000
0000
0301
0000
0000
0000
0000
,
0020
0000
0000
1030
0000
0000
0000
0000
,
0200
0000
0000
1300
0000
0000
0000
0000
,
0020
0000
0000
0031
0000
0000
0000
0000
,
0100
0001
0010
0100
,
2000
0000
3001
0000
1000
0001
0100
0000
,
0000
0010
1000
0100
,
0010
0000
0002
0000
0013
0000
0001
0100
,
1000
0000
0100
0000
0001
0000
1000
1000
,
1000
0000
0001
0001
0001
0000
0100
0100
,
0100
0001
0010
0001
,
0100
1000
0010
1000
,
0100
0001
0010
0100
,
2000
0000
3010
0000
1000
0001
0010
0000
,
0000
0100
0010
0001
,
0100
0000
0020
0000
1030
0000
0001
1000
,
0100
0000
1000
0000
0100
0000
0001
0001
,
0001
0000
1000
1000
1000
0000
0010
0010
,
0010
0100
0001
0010
,
0001
0100
0001
0010
,
1000
0100
0010
0001
,
0010
0100
2000
0000
3001
0000
0110
0000
,
1000
0100
0001
0010
,
2000
0000
0000
3001
0000
0000
0110
0000
,
0010
0100
0001
0010
,
0100
0010
0200
0000
1300
0000
1001
0000
,
0002
0103
0020
1030
,
0002
0100
1003
1001
,
0100
0000
1000
0001
2000
0000
3100
0000
,
0010
0000
0001
0000
0100
0000
0010
1000
,
0100
0000
1000
0001
2000
0000
3100
0000
,
0001
0100
0001
0010
,
2000
0100
0001
0100
,
3002
0100
1000
0100
,
1003
0000
0100
0000
0010
0001
0200
0000
,
0001
0010
0301
1001
,
0100
0000
0010
1000
0020
0000
0130
0000
,
1000
0100
0001
0000
0100
0000
0001
1000
,
0001
0000
0010
0001
0020
0000
0130
0000
,
1000
0100
0010
0001
,
0100
0000
0001
0100
2000
0000
3001
0000
,
0100
0000
1000
0100
0002
0000
1003
0000
,
0100
0000
1000
0000
0010
1000
0200
0000
,
1000
0010
1000
0310
,
0002
0000
0000
0000
,
0003
0000
0000
0000
;

//---------------dance-single - HEAVY----------------
#NOTES:
     dance-single:
     HEAVY:
     Hard:
     7:
     0.463,0.478,0.068,0.273,0.156:
0000
0000
0000
0000
,
0000
0000
0000
0000
,
0000
0000
0000
0000
,
0000
0000
0000
0000
,
0200
0000
0000
0302
0000
0000
0000
0000
,
0023
0000
0000
0032
0000
0000
0003
0000
,
0200
0000
0000
2300
0000
0000
0000
0000
,
3020
0000
0000
2030
0000
0000
3000
0000
,
0001
0000
1000
0100
1000
0001
0100
0010
,
0100
0000
0002
0000
0000
0000
1003
0010
1000
0000
0100
0000
0010
0000
0000
0000
,
1000
0100
0010
0001
0010
0001
0100
0010
,
1000
0200
0000
0310
0000
0001
0100
0010
,
0001
0000
0100
0000
1000
0000
0001
0000
0100
0000
1000
0000
0001
0100
0002
0000
,
1000
0000
0003
0000
1000
0100
2000
0000
0001
0000
3000
0000
1000
0010
1000
0000
,
0001
0010
0100
0010
0001
0100
0010
1000
,
0010
1000
0100
0010
0001
0010
0100
1000
,
0010
0000
1000
0100
1000
0001
0100
0010
,
0100
0000
0002
0000
0000
0000
1003
0010
1000
0000
0100
0000
0010
0000
0000
0000
,
0001
0010
0100
1000
0010
0100
0010
1000
,
0100
0020
0000
0031
0000
1000
0100
0010
,
1000
0000
0100
0000
0001
0000
0100
0000
1000
0000
0010
0000
1000
0100
2000
0000
,
0010
0000
3000
0000
0001
0100
0002
0000
0010
0000
0003
0000
1000
0100
1000
0000
,
0010
0100
0001
0010
0001
0100
0001
0010
,
1000
0010
0100
0010
1000
0100
0010
0001
,
0001
0010
0100
1000
0100
0010
0000
0001
,
0010
0000
0001
0100
0000
0001
0100
0000
0010
0000
1000
0000
0110
0000
0000
0000
,
1000
0001
1000
0000
0000
0000
1000
0100
1000
0000
0010
0000
0000
0000
0010
0000
,
0100
0001
0000
2000
0000
3001
0110
0001
,
0010
0001
0010
0100
1000
0100
0000
0001
,
1000
0100
0010
0001
0010
0100
1001
0000
,
1000
0010
1000
0100
2000
0000
3010
0000
,
0001
0100
0010
1000
0100
0110
0110
0100
,
1001
0000
1000
0001
2000
0000
3100
0000
,
0001
0000
0010
0000
0100
0000
1000
0000
0010
0000
0000
0010
1000
0000
0001
0000
,
0100
0001
0010
0001
0200
0000
0310
0000
,
0001
0010
0100
1000
0000
1000
0100
0010
,
0001
0000
0000
0001
0100
0000
0000
0100
0010
0000
0000
0010
1000
0000
0000
1000
,
0001
0000
0000
0001
0100
0000
0000
0100
0010
0000
0000
0010
1000
0000
0000
1000
,
0002
0000
0000
0000
1003
0000
0000
0000
0010
1000
0001
1000
0200
0000
0000
0000
,
0310
0000
0001
0000
1000
0100
0001
0000
,
1001
0000
1000
0010
2000
0000
3100
0000
,
0010
0000
0100
0000
0001
0000
0010
0000
0100
0000
0000
0010
0001
0000
0100
0000
,
0010
0000
0001
1000
0020
0000
0130
0000
,
1000
0100
0001
0100
0000
0010
0001
0100
,
0010
0000
1000
0100
0000
1000
0100
0000
0020
0000
0000
0001
0030
0000
1000
0000
,
0100
0000
0001
0100
0000
1000
0100
0000
0002
0000
0000
1000
0003
0000
0010
0000
,
1000
0000
0000
0000
0100
0000
0000
0000
0010
0100
0001
0100
0020
0000
0000
0000
,
1030
0100
0010
0001
0000
0001
0010
0100
,
2000
0000
0000
0000
,
3000
0000
0000
0000
;

//---------------dance-single - BEGINNER----------------
#NOTES:
     dance-single:
     BEGINNER:
     Beginner:
     1:
     0.113,0.164,0.010,0.000,0.000: // measure 1
0000
0000
0000
0000
,  // measure 2
0000
0000
0000
0000
,  // measure 3
0000
0000
0000
0000
,  // measure 4
0000
0000
0000
0000
,  // measure 5
0100
0000
0000
0000
,  // measure 6
0010
0000
0000
0000
,  // measure 7
0100
0000
0000
0000
,  // measure 8
0010
0000
0000
0000
,  // measure 9
0000
0001
0000
0001
,  // measure 10
0000
1000
0000
0100
,  // measure 11
0000
1000
0000
1000
,  // measure 12
0000
0001
0000
0100
,  // measure 13
0100
0000
0000
0000
,  // measure 14
0100
0000
0010
0000
,  // measure 15
0100
0000
0000
0000
,  // measure 16
0010
0000
0000
0000
,  // measure 17
0000
0001
0000
0001
,  // measure 18
0000
1000
0000
0010
,  // measure 19
0000
1000
0000
1000
,  // measure 20
0000
0001
0000
0010
,  // measure 21
0010
0000
0000
0000
,  // measure 22
0001
0000
1000
0000
,  // measure 23
0001
0000
0000
0000
,  // measure 24
1000
0000
0000
0000
,  // measure 25
1000
0000
0100
0000
,  // measure 26
0010
0000
0000
0001
,  // measure 27
0001
0000
1000
0000
,  // measure 28
0100
0000
0000
1000
,  // measure 29
1000
0000
0100
0000
,  // measure 30
0010
0000
0000
0001
,  // measure 31
0001
0000
0001
0000
,  // measure 32
1000
0000
1000
1001
,  // measure 33
0000
0001
0000
0100
,  // measure 34
0000
0010
0000
0100
,  // measure 35
0000
1000
0000
0100
,  // measure 36
0000
0010
0010
0000
,  // measure 37
0001
0001
0001
0000
,  // measure 38
1000
1000
1000
0000
,  // measure 39
0001
0000
0000
0000
,  // measure 40
0100
0000
0000
0000
,  // measure 41
0000
1000
0000
0001
,  // measure 42
0000
0010
0000
0001
,  // measure 43
0000
0100
0000
1000
,  // measure 44
0000
0010
0010
0000
,  // measure 45
1000
1000
1000
0000
,  // measure 46
0001
0001
0001
0000
,  // measure 47
0100
0000
0000
0000
,  // measure 48
0010
0000
0000
0000
,  // measure 49
0100
0000
0000
0000
;
