#TITLE:54321;
#SUBTITLE:;
#ARTIST:Kid Sister;
#TITLETRANSLIT:;
#SUBTITLETRANSLIT:;
#ARTISTTRANSLIT:;
#GENRE:;
#CREDIT:SpyHunter29;
#MENUCOLOR:;
#BANNER:54321.png;
#DISC:54321.png;
#BACKGROUND:54321-BG.png;
#PREVIEW:54321-BG.png;
#LYRICSPATH:;
#CDTITLE:./CDTitles/SpyHunter29 Originals.png;
#MUSIC:54321.mp3;
#SAMPLESTART:62.250;
#SAMPLELENGTH:15.000;
#SELECTABLE:YES;
#DISPLAYBPM:124.000;
#OFFSET:-0.020;
#BPMS:0.000=123.500;
#STOPS:;
#BGCHANGES:;

//---------------dance-single - BEGINNER----------------
#NOTES:
     dance-single:
     BEGINNER:
     Beginner:
     2:
     0.121,0.123,0.000,0.000,0.000: // measure 1
0000
0000
0000
0000
,  // measure 2
0000
0000
0000
0000
,  // measure 3
0000
0000
0000
0000
,  // measure 4
0000
0000
0000
0000
,  // measure 5
0000
0001
0000
1000
,  // measure 6
0000
0001
0001
0001
,  // measure 7
0000
1000
0000
0001
,  // measure 8
0000
1000
1000
1000
,  // measure 9
0000
0000
0000
1000
,  // measure 10
0000
0000
0000
0001
,  // measure 11
0000
0000
0000
0010
,  // measure 12
0000
0000
0000
0100
,  // measure 13
0000
0000
0000
1000
,  // measure 14
0000
0000
0000
0001
,  // measure 15
0000
0000
0000
0010
,  // measure 16
0000
0000
0000
0100
,  // measure 17
0000
1000
0000
1000
,  // measure 18
0000
0001
0000
0001
,  // measure 19
0000
0100
0000
0100
,  // measure 20
0000
0010
0010
0010
,  // measure 21
0000
0100
0000
0100
,  // measure 22
0000
0001
0000
0001
,  // measure 23
0000
0010
0000
0010
,  // measure 24
0000
1000
1000
1000
,  // measure 25
0000
0001
0000
0100
,  // measure 26
0000
1000
0000
0100
,  // measure 27
0000
0001
0000
0010
,  // measure 28
0000
1000
1000
1000
,  // measure 29
0000
0010
0000
1000
,  // measure 30
0000
0100
0000
1000
,  // measure 31
0000
0010
0000
0001
,  // measure 32
0000
0100
0100
0100
,  // measure 33
0000
0001
0000
0001
,  // measure 34
0000
1000
0000
1000
,  // measure 35
0000
0001
0000
0010
,  // measure 36
0000
1000
0000
0010
,  // measure 37
0000
0001
0000
0001
,  // measure 38
0000
1000
0000
1000
,  // measure 39
0000
0001
0000
0100
,  // measure 40
0000
1000
0000
0100
,  // measure 41
0000
0000
0000
0000
,  // measure 42
0000
0001
0001
0001
,  // measure 43
0000
0000
0000
0000
,  // measure 44
0000
1000
1000
1000
,  // measure 45
0000
0000
0000
0000
,  // measure 46
0000
0010
0010
0010
,  // measure 47
0000
0000
0000
0000
,  // measure 48
0000
0100
0100
0100
,  // measure 49
0100
0000
0000
0000
,  // measure 50
0010
0000
0000
0000
,  // measure 51
0100
0000
0000
0000
,  // measure 52
0010
0010
0010
0010
;

//---------------dance-single - BASIC----------------
#NOTES:
     dance-single:
     BASIC:
     Easy:
     5:
     0.252,0.247,0.076,0.000,0.014: // measure 1
0000
0000
0000
0000
,  // measure 2
0000
0000
0000
0000
,  // measure 3
0000
0000
0000
0000
,  // measure 4
0000
0000
0000
0000
,  // measure 5
0001
0100
0001
0000
,  // measure 6
1000
0100
1000
1000
,  // measure 7
0001
0010
0001
0000
,  // measure 8
1000
0010
0100
0001
,  // measure 9
0000
1000
0100
1000
,  // measure 10
0100
0010
0001
1000
,  // measure 11
0000
0001
0100
0001
,  // measure 12
0100
0010
1000
0001
,  // measure 13
0000
0010
0001
0010
,  // measure 14
0001
1000
0010
0100
,  // measure 15
0000
0010
1000
0010
,  // measure 16
1000
0001
0010
0100
,  // measure 17
0000
0000
1000
1000
0000
0000
0100
0100
,  // measure 18
0000
0000
0001
0001
0000
0000
0100
0100
,  // measure 19
0000
0000
1000
1000
0000
0000
0001
0001
,  // measure 20
0000
1000
0010
0001
,  // measure 21
0000
1000
0010
0110
,  // measure 22
0000
0001
0010
0110
,  // measure 23
0000
0100
0001
1001
,  // measure 24
0000
0100
1000
1001
,  // measure 25
0010
0001
0100
0100
,  // measure 26
0010
1000
0100
0100
,  // measure 27
1000
0001
0010
0001
,  // measure 28
1000
0010
1000
0001
,  // measure 29
0000
1000
0010
0100
,  // measure 30
0000
0001
0010
0100
,  // measure 31
0000
1000
0001
0100
,  // measure 32
0000
0000
0001
0000
1000
1000
0001
0001
,  // measure 33
0000
1000
0010
0100
,  // measure 34
0001
0100
0010
1000
,  // measure 35
0000
1000
0100
0010
,  // measure 36
0001
0010
0100
1000
,  // measure 37
0000
0010
0100
0001
,  // measure 38
1000
0001
0100
0010
,  // measure 39
0000
1000
0001
0010
,  // measure 40
0100
0010
0001
1000
,  // measure 41
0001
1000
0100
1001
,  // measure 42
1000
0100
0001
0100
,  // measure 43
1000
0001
0010
0110
,  // measure 44
0001
0010
1000
0010
,  // measure 45
0001
0100
0010
0110
,  // measure 46
1000
0100
0010
0001
,  // measure 47
0100
0010
1000
1001
,  // measure 48
0010
0001
1000
0001
,  // measure 49
0100
0100
0100
0010
,  // measure 50
0100
0100
0100
1000
,  // measure 51
0100
0100
0100
0001
,  // measure 52
0100
0000
0000
0010
0000
0000
0100
0000
0000
0010
0000
0000
0100
0000
0000
0010
;

//---------------dance-single - DIFFICULT----------------
#NOTES:
     dance-single:
     DIFFICULT:
     Medium:
     6:
     0.359,0.321,0.086,0.162,0.138: // measure 1
0000
0000
0000
0000
,  // measure 2
0000
0000
0000
0000
,  // measure 3
0000
0000
0000
0000
,  // measure 4
0000
0000
0000
0000
,  // measure 5
1000
0000
0100
0000
1000
1000
0000
0000
,  // measure 6
0001
0000
0000
0000
0100
0000
0000
0000
0001
0000
0000
0001
0000
0000
0001
0000
,  // measure 7
0010
0000
0100
0000
0010
0010
0000
0000
,  // measure 8
0001
0100
0001
0100
1000
0100
2000
0000
,  // measure 9
3000
0000
0100
0000
0000
0010
0000
0000
1000
0000
0000
0010
0000
0000
0100
0000
,  // measure 10
0000
0001
1000
0100
1000
0000
0002
0000
,  // measure 11
0003
0000
0010
0000
0000
0001
0000
0000
1000
0000
0000
0100
0000
0000
0010
0000
,  // measure 12
0000
0001
0010
0100
1000
0000
0200
0000
,  // measure 13
0300
0000
1000
0000
0000
0001
0000
0000
0010
0000
0000
0100
0000
0000
0010
0000
,  // measure 14
0000
0001
0100
0010
1000
0000
0002
0000
,  // measure 15
0003
0000
1000
0000
0000
0100
0000
0000
0001
0000
0000
0100
0000
0000
1000
0000
,  // measure 16
0000
0010
0100
0001
1000
0000
0020
0000
,  // measure 17
0030
1000
0100
1000
0000
0001
0010
0001
,  // measure 18
0000
0100
0001
0100
0000
0010
1000
0010
,  // measure 19
0000
1000
0001
0100
0000
0001
1000
0100
,  // measure 20
0000
0010
0100
1000
0001
0000
1000
0000
,  // measure 21
0000
1000
0010
0100
0001
0000
1000
0000
,  // measure 22
0000
0001
0010
0100
1000
0000
0001
0000
,  // measure 23
0000
0010
0001
0100
0001
0000
1000
0000
,  // measure 24
0000
0010
1000
0100
1000
0000
0001
0000
,  // measure 25
1000
0000
0100
0010
0001
0000
0011
0000
,  // measure 26
0001
0000
0100
0010
1000
0000
1010
0000
,  // measure 27
1000
0000
0100
0000
1000
0001
0100
0000
,  // measure 28
0001
0000
0100
0000
0001
1000
0100
0000
,  // measure 29
1000
0000
0001
0000
0100
0001
0010
0000
,  // measure 30
0001
0000
1000
0000
0100
1000
0010
0000
,  // measure 31
1000
0000
0010
0000
1000
0100
0010
0000
,  // measure 32
0001
0000
1000
0000
0001
0001
0010
0010
,  // measure 33
0000
0000
0100
0000
0000
0010
0000
0000
0001
0000
0000
1000
0000
0000
0100
0000
,  // measure 34
0000
1000
0001
0100
0001
0000
2000
0000
,  // measure 35
3000
0000
0001
0000
0000
0010
0000
0000
0100
0000
0000
1000
0000
0000
0001
0000
,  // measure 36
0000
0010
0100
1000
0010
0000
0200
0000
,  // measure 37
0300
0000
0010
0000
0000
1000
0000
0000
0001
0000
0000
0100
0000
0000
0010
0000
,  // measure 38
0000
0100
1000
0100
0001
0000
0020
0000
,  // measure 39
0030
0000
0100
0000
0000
1000
0000
0000
0010
0000
0000
0001
0000
0000
0100
0000
,  // measure 40
0000
0010
0001
1000
0100
0000
2000
0000
,  // measure 41
3001
0010
0100
2002
,  // measure 42
3003
0000
0100
0000
0000
0001
0000
0000
1000
0000
0000
0010
0000
0000
1000
0000
,  // measure 43
0001
0010
0100
0220
,  // measure 44
0330
0000
1000
0000
0000
0100
0000
0000
0010
0000
0000
0100
0000
0000
1000
0000
,  // measure 45
0001
0100
1000
2002
,  // measure 46
3003
0000
1000
0000
0000
0100
0000
0000
0010
0000
0000
0001
0000
0000
0100
0000
,  // measure 47
0001
1000
0010
0220
,  // measure 48
0330
0000
0010
0000
0000
0100
0000
0000
0001
0000
0000
0100
0000
0000
0010
0000
,  // measure 49
1000
1000
0100
1001
,  // measure 50
0001
0001
0100
1001
,  // measure 51
1000
1000
0010
1001
,  // measure 52
0010
0000
0000
0001
0000
0000
1000
0000
0000
0100
0000
0000
0010
0000
0000
0001
;

//---------------dance-single - EXPERT----------------
#NOTES:
     dance-single:
     EXPERT:
     Hard:
     8:
     0.485,0.519,0.209,0.048,0.357: // measure 1
0000
0000
0000
0000
,  // measure 2
0000
0000
0000
0000
,  // measure 3
0000
0000
0000
0000
,  // measure 4
0000
0000
0000
0000
,  // measure 5
0001
0100
0010
1000
0100
0010
0000
0000
,  // measure 6
1000
0000
0010
0000
0100
0000
0001
0000
0010
0000
0001
0100
0000
0001
0100
0000
,  // measure 7
0001
0010
0100
1000
0010
0100
0000
0000
,  // measure 8
0001
0000
0100
0000
0010
0000
1000
0000
0001
0100
0001
0100
0020
0000
0000
0000
,  // measure 9
1030
0000
0001
0000
0000
0010
0000
0000
0100
0000
0000
1000
0000
0000
0100
0000
,  // measure 10
0000
1000
0100
0001
0100
1000
0010
0100
,  // measure 11
0000
0000
0010
0000
0000
1000
0000
0000
0001
0000
0000
0100
0000
0000
0001
0000
,  // measure 12
0000
1000
0010
1000
0001
0100
0010
0100
,  // measure 13
0000
0000
0001
0000
0000
0010
0000
0000
0100
0000
0000
1000
0000
0000
0010
0000
,  // measure 14
0000
0100
0010
0001
0010
1000
0010
0100
,  // measure 15
0000
0000
0002
0000
0000
0010
0000
0000
1000
0000
0000
0100
0000
0000
1003
0000
,  // measure 16
0000
0001
0001
1000
1000
0010
0010
0000
,  // measure 17
1010
0000
1000
0010
1000
0000
0010
0000
0000
0000
0001
0000
0100
0000
0010
0000
,  // measure 18
0000
0100
0001
0010
0000
0100
1000
0010
,  // measure 19
0000
0000
1000
0010
1000
0010
1000
0000
0000
0000
0001
0000
1000
0000
0010
0000
,  // measure 20
0000
0000
0100
0010
0100
0000
0001
0000
1000
0000
0010
0000
0100
0000
0001
0000
,  // measure 21
0000
0000
1000
0010
0100
0010
1000
0000
0001
0000
0100
0000
0010
0000
1000
0000
,  // measure 22
0000
0000
0001
0100
0010
0000
0100
0000
0001
0000
0010
0000
0100
0000
1000
0000
,  // measure 23
0000
0000
0001
0010
0001
0000
1000
0100
0000
0010
0001
0000
0100
0000
0010
0000
,  // measure 24
0000
0000
0100
0000
0001
0010
0001
0000
1000
0010
1000
0000
0100
0000
0010
0000
,  // measure 25
0100
0000
1000
0010
1000
0000
0100
0001
0100
0000
0001
0000
0020
0000
0000
0000
,  // measure 26
0031
0000
0100
0010
0100
0000
0001
1000
0001
0000
0010
0000
0200
0000
0000
0000
,  // measure 27
1300
0000
0001
0000
0010
0001
0010
0000
0001
0000
0100
0000
0010
1000
0010
0000
,  // measure 28
0000
1000
0100
0010
0001
0100
0010
1000
,  // measure 29
0000
0000
0001
0000
0100
0000
0010
0000
1000
0010
1000
0010
0001
0010
0001
0000
,  // measure 30
0000
0000
0010
0000
0100
0000
0001
0000
0000
1000
0000
0000
0001
0000
0100
0000
,  // measure 31
0000
0000
0100
0001
1000
0000
0001
0000
0100
0000
0010
0000
1000
0000
0100
0000
,  // measure 32
0000
1000
0100
0010
0011
0011
1100
1100
,  // measure 33
0000
0000
0001
0000
0000
0010
0000
0000
0100
0000
0000
1000
0000
0000
0100
0000
,  // measure 34
0000
1000
0001
0100
0001
1000
0010
0100
,  // measure 35
0000
0000
0010
0000
0000
1000
0000
0000
0100
0000
0000
0010
0000
0000
0001
0000
,  // measure 36
0000
0100
0010
0100
1000
0100
0001
0100
,  // measure 37
0000
0000
0001
0000
0000
1000
0000
0000
0100
0000
0000
0010
0000
0000
0001
0000
,  // measure 38
0000
1000
0010
0001
1000
0100
0010
0100
,  // measure 39
0000
0000
0002
0000
0000
0100
0000
0000
1000
0000
0000
0010
0000
0000
1003
0000
,  // measure 40
0000
0000
1000
0000
0100
0000
0010
0000
0001
0000
1000
0000
0100
0000
0000
0100
,  // measure 41
0010
0000
0000
0010
0000
0000
0001
0000
0000
0001
0000
0000
0010
0000
0000
0000
,  // measure 42
0000
0000
1010
0000
0000
1010
0000
0000
0101
0000
0000
0101
0000
0000
0010
1000
,  // measure 43
0010
0000
0000
1000
0000
0000
0100
0000
0000
0010
0000
0000
0001
0000
0000
0000
,  // measure 44
0000
0000
0011
0000
0000
0011
0000
0000
1100
0000
0000
1100
0000
0000
1000
0010
,  // measure 45
1000
0000
0000
0100
0000
0000
0010
0000
0000
0001
0000
0000
1000
0000
0000
0000
,  // measure 46
0000
0000
1001
0000
0000
1100
0000
0000
0011
0000
0000
1100
0000
0000
0010
0001
,  // measure 47
0010
0000
0000
0100
0000
0000
1000
0000
0000
0010
0000
0000
0100
0000
0000
0000
,  // measure 48
0000
0000
0110
0000
0000
0110
0000
0000
1001
0000
0000
1001
0000
0000
0110
0000
,  // measure 49
0100
0000
0010
1000
0000
0000
0100
0000
0000
0010
0000
0000
0001
0000
0000
0000
,  // measure 50
0100
0000
0010
1000
0000
0000
0100
0000
0000
0010
0000
0000
0001
0000
0000
0000
,  // measure 51
0100
0000
0000
0001
0100
0001
0001
0000
0000
1000
0000
0000
0010
0000
0000
0000
,  // measure 52
0100
0000
1000
0100
0000
0001
0100
0000
0001
0010
0000
1000
0010
0000
1000
0001
;
