#TITLE:19;
#SUBTITLE:;
#ARTIST:Paul Hardcastle;
#TITLETRANSLIT:;
#SUBTITLETRANSLIT:;
#ARTISTTRANSLIT:;
#GENRE:;
#CREDIT:;
#MENUCOLOR:;
#BANNER:19.png;
#BACKGROUND:19-BG.png;
#LYRICSPATH:;
#CDTITLE:;
#MUSIC:19.mp3;
#OFFSET:-0.080;
#SAMPLESTART:52.700;
#SAMPLELENGTH:12.000;
#SELECTABLE:YES;
#LISTSORT:;
#DISPLAYBPM:118.000;
#BPMS:0.000=117.95;
#STOPS:;
#TICKCOUNT:0.000=2;
#BGCHANGES:0.000=19.avi=1.000=1=1=0,
99999=-nosongbg-=1.000=0=0=0 // don't automatically add -songbackground-
;
#KEYSOUNDS:;
#ATTACKS:;

//---------------dance-single - LIGHT----------------
#NOTES:
     dance-single:
     LIGHT:
     Easy:
     3:
     0.224,0.363,0.186,0.078,0.000: // measure 1
0000
0000
0000
0000
,  // measure 2
0000
0000
0000
0000
,  // measure 3
0000
0000
0000
0000
,  // measure 4
0000
0000
0000
0000
,  // measure 5
0001
0001
0000
0100
,  // measure 6
1000
1000
0000
0010
,  // measure 7
0001
0001
0000
0010
,  // measure 8
1000
1000
0000
1000
,  // measure 9
0001
0001
0000
0100
,  // measure 10
0100
0000
0000
0000
0010
0000
0000
1000
,  // measure 11
0001
1000
0001
1000
,  // measure 12
0010
1000
0100
0001
,  // measure 13
0010
0000
0100
0000
,  // measure 14
0010
0010
0000
0100
,  // measure 15
0100
0000
1000
0000
,  // measure 16
0010
0001
1000
0100
,  // measure 17
1000
0000
0001
0000
,  // measure 18
0100
0000
0010
0000
,  // measure 19
1000
1000
0000
0010
,  // measure 20
1000
0000
0001
0000
,  // measure 21
0001
1000
0001
0000
,  // measure 22
0010
0000
0000
0000
,  // measure 23
1000
0000
0010
0000
,  // measure 24
0100
0000
0010
0000
,  // measure 25
1000
0000
0001
0000
,  // measure 26
0100
0000
0001
1000
,  // measure 27
0000
0001
0001
0001
,  // measure 28
0010
0000
0100
0000
1000
1000
0000
0000
,  // measure 29
0000
1000
1000
1000
,  // measure 30
0010
0000
0100
0000
0010
0010
0000
0000
,  // measure 31
0000
0001
0001
0001
,  // measure 32
0010
0000
1000
0000
0100
0100
0000
0000
,  // measure 33
0000
0010
0010
0010
,  // measure 34
0100
0000
1000
0000
0010
0010
0000
0000
,  // measure 35
1001
1001
0000
0100
,  // measure 36
1001
0110
2002
3003
,  // measure 37
0110
0110
0000
0010
,  // measure 38
1001
0110
2002
3003
,  // measure 39
0001
0000
0000
0000
1000
1000
0000
0000
,  // measure 40
0010
0000
0000
0000
1000
1000
0000
0000
,  // measure 41
0100
0000
0000
0000
0010
0010
0000
0000
,  // measure 42
1000
0000
0000
0000
0001
0001
0000
0000
,  // measure 43
0100
0000
0000
0000
0001
0001
0000
0000
,  // measure 44
0100
0000
0000
0000
1000
1000
0000
0000
,  // measure 45
0010
0000
0100
0000
,  // measure 46
0010
0100
0010
0000
,  // measure 47
0110
0110
0000
0001
,  // measure 48
0110
1001
0220
0330
,  // measure 49
0110
1001
0000
0100
,  // measure 50
2002
3003
1001
0000
;

//---------------dance-single - STANDARD----------------
#NOTES:
     dance-single:
     STANDARD:
     Medium:
     6:
     0.366,0.387,0.098,0.098,0.147: // measure 1
0000
0000
0000
0000
,  // measure 2
0000
0000
0000
0000
,  // measure 3
0000
0000
0000
0000
,  // measure 4
0000
0000
0000
0000
,  // measure 5
0100
0000
0000
0001
0000
0000
0100
0000
0000
0000
0001
0000
0010
0000
0000
0000
,  // measure 6
0100
0000
0000
1000
0000
0000
0100
0000
0000
0000
1000
0000
0010
0000
0000
0000
,  // measure 7
0001
0000
0000
0010
0000
0000
0001
0000
0000
0000
0010
0000
0100
0000
0000
0000
,  // measure 8
1000
0000
0000
0010
0000
0000
1000
0000
0000
0000
0010
0000
0100
0000
0000
0000
,  // measure 9
0001
0000
0000
1000
0000
0000
0001
0000
0000
0000
0010
0000
0100
0000
0000
0000
,  // measure 10
1000
0100
1000
0001
0010
0001
1000
0000
,  // measure 11
0001
0100
0001
0100
0001
0000
0001
0000
,  // measure 12
0020
0001
0100
1030
,  // measure 13
1000
0000
0000
0010
0000
0000
0100
0000
0001
0000
0000
0000
1000
0000
0000
0000
,  // measure 14
0001
0100
1000
0100
0000
0001
0100
0000
,  // measure 15
1000
0000
0000
0000
0010
0000
0000
0000
1000
0000
0000
0100
0000
0000
0010
0000
,  // measure 16
0002
0100
1000
0010
,  // measure 17
1003
0000
0000
0000
0001
0000
0000
0000
1000
0000
0000
0100
0000
0000
0001
0000
,  // measure 18
0100
0000
0001
0000
0000
1000
0000
0000
0001
0000
0100
0000
0001
0000
0000
0000
,  // measure 19
1000
0000
0001
0000
1000
0000
0001
0000
0000
0000
0010
0000
0000
0010
0000
0000
,  // measure 20
0010
0000
0000
1000
0100
0000
0010
0000
,  // measure 21
0001
0000
0000
1000
0000
0000
0100
0000
0010
0000
0000
0001
0000
0000
0100
0000
,  // measure 22
0000
0000
1000
0000
0000
0001
0000
0000
0100
0000
0100
0000
0010
0000
0000
0000
,  // measure 23
1001
0000
0000
0000
0100
0000
0000
0000
0001
0000
0000
0100
0000
0000
0010
0000
,  // measure 24
0000
0000
1000
0000
0000
0001
0000
0000
1000
0000
0000
0000
0010
0000
0000
0000
,  // measure 25
0100
0000
0000
0000
0001
0000
0000
0000
0010
0000
0000
0100
0000
0000
1000
0000
,  // measure 26
0000
0000
0010
0000
0000
0010
0000
0000
1000
0000
0001
0000
1000
0000
0000
0000
,  // measure 27
0000
0000
1000
0000
0100
0000
1000
0000
0001
0000
0000
0001
0000
0000
0001
0000
,  // measure 28
0000
0100
0001
0100
0010
0010
0000
1000
,  // measure 29
0000
0000
0010
0000
1000
0000
0010
0000
0100
0000
0000
0100
0000
0000
0100
0000
,  // measure 30
0000
0001
0010
0001
0100
0100
0000
1000
,  // measure 31
0000
0000
0100
0000
0001
0000
0100
0000
0001
0000
0000
0001
0000
0000
0001
0000
,  // measure 32
0000
1000
0010
1000
0100
0100
0000
0010
,  // measure 33
0000
0000
1000
0000
0010
0000
1000
0000
0100
0000
0000
0100
0000
0000
0100
0000
,  // measure 34
0000
0001
0010
0001
0010
0100
0000
0000
,  // measure 35
0110
0000
0000
0000
0110
0000
0000
0000
0000
0000
0010
0000
0000
0100
0000
0000
,  // measure 36
0010
0000
0100
0000
0000
0001
0000
0000
1000
0000
0000
0000
0000
0000
0000
0000
,  // measure 37
1001
0000
0000
0000
1001
0000
0000
0000
0000
0000
1000
0000
0000
0001
0000
0000
,  // measure 38
1000
0000
0001
0000
0000
0010
0000
0000
0100
0000
0000
0000
0000
0000
0000
0000
,  // measure 39
1000
0100
0010
0100
2000
0000
3100
0000
,  // measure 40
0001
0000
0100
0000
0010
0000
0100
0000
0002
0000
0000
0100
0000
0000
0100
0000
,  // measure 41
1003
0010
0100
0010
2000
0000
3010
0000
,  // measure 42
0001
0010
0100
0010
0002
0000
0013
0000
,  // measure 43
1000
0100
0001
0000
1000
0010
0001
0000
,  // measure 44
0001
0100
1000
0000
0001
0010
1000
0000
,  // measure 45
0010
0100
0001
0100
0020
0000
1030
0000
,  // measure 46
1000
0100
0010
0001
0020
0000
0031
0000
,  // measure 47
1001
0000
0000
0000
1001
0000
0000
0000
0000
0000
0001
0000
0000
1000
0000
0000
,  // measure 48
1000
0000
0001
0000
0000
0010
0000
0000
0200
0000
0000
0000
0310
0000
0000
0000
,  // measure 49
0110
0000
0000
0000
0110
0000
0000
0000
0000
0000
0010
0000
0000
0100
0000
0000
,  // measure 50
0002
0000
1000
0000
0000
1003
0000
0000
1001
0000
0000
0000
0000
0000
0000
0000
;

//---------------dance-single - HEAVY----------------
#NOTES:
     dance-single:
     HEAVY:
     Hard:
     9:
     0.545,0.629,0.469,0.147,0.484: // measure 1
0000
0000
0000
0000
,  // measure 2
0000
0000
0000
0000
,  // measure 3
0000
0000
0000
0000
,  // measure 4
0000
0000
0000
0000
,  // measure 5
0001
1000
0000
1000
0001
0000
0100
0000
0000
0000
0001
0100
0001
0000
0000
0000
,  // measure 6
0001
1000
0000
1000
0010
0000
1000
0000
0000
0000
0100
0000
0010
0000
1000
0010
,  // measure 7
1000
0010
0000
0010
1000
0000
0001
0000
0000
0000
1000
0100
1000
0000
0000
0000
,  // measure 8
0001
0100
0000
0010
1000
0000
0010
0000
0000
0000
0100
0000
0001
0000
0100
0001
,  // measure 9
0100
0001
0000
1000
0001
0000
0010
0000
0000
0000
0001
1000
0001
0000
0000
0000
,  // measure 10
1000
0100
1000
0001
0000
0000
0001
0100
0001
0000
1000
0000
0000
0000
0010
0000
,  // measure 11
1000
0100
1000
0100
0001
0100
0001
0100
1000
0001
1000
0001
0000
0000
1000
0100
,  // measure 12
1000
0000
0010
0000
0001
0000
0000
0000
0100
0010
1000
0010
0100
0010
1000
0010
,  // measure 13
0100
0001
0100
0010
0000
0000
1000
0001
1000
0000
0100
0000
0000
0000
0000
0000
,  // measure 14
0001
0010
0100
1000
0010
0000
0100
0000
0000
0000
0010
0000
1000
0000
0100
1000
,  // measure 15
0100
0000
0000
0000
0010
0000
0000
0000
0100
0000
0000
1000
0000
0000
0010
0000
,  // measure 16
0002
0010
1000
0100
,  // measure 17
1003
0000
0000
0000
1010
0000
0000
0000
0010
0000
0000
0100
0000
0000
0001
0000
,  // measure 18
0000
0000
0100
0000
0000
0100
0000
0000
0001
0000
1000
0000
0100
0000
0000
0000
,  // measure 19
1000
0001
1000
0001
1000
0000
0100
0000
0000
0000
1000
0000
1000
0100
0000
0100
,  // measure 20
0010
0001
0000
0100
0010
0000
1001
0000
,  // measure 21
0100
0000
0000
0001
0000
0000
0010
0000
0100
0000
0000
1000
0000
0000
0001
0000
,  // measure 22
0000
0000
0010
0000
0000
1000
0000
0000
0100
0000
0100
0000
0001
0000
0000
0000
,  // measure 23
1001
0000
0000
0000
1001
0000
0000
0000
0010
0000
0000
1000
0000
0000
0100
0000
,  // measure 24
0000
0000
0010
0000
0000
0001
0000
0000
1000
0000
1000
0000
0100
0000
0000
0000
,  // measure 25
0001
0000
0000
0000
1000
0000
0000
0000
0001
0000
0000
0100
0000
0000
1000
0000
,  // measure 26
0000
0000
0010
0000
0000
0010
0000
0010
1000
0000
0100
0000
0010
0000
0000
0000
,  // measure 27
1000
0000
0001
0100
0001
0100
0001
0000
1010
0000
0000
0110
0000
0000
0101
0000
,  // measure 28
0000
0000
1000
0100
1000
0100
1000
0000
0010
0000
0001
0000
0010
0000
0100
0000
,  // measure 29
1000
0000
0010
0100
0010
0100
0010
0000
0101
0000
0000
1001
0000
0000
1010
0000
,  // measure 30
0000
0000
0010
1000
0001
1000
0010
0000
1000
0000
0100
0000
0010
0000
0001
0000
,  // measure 31
0100
0000
0001
1000
0001
1000
0100
0000
1001
0000
0000
1010
0000
0000
0011
0000
,  // measure 32
0000
0000
0001
0010
0001
0100
0010
0000
1000
0000
0100
0000
0010
0000
0100
0000
,  // measure 33
1000
0000
0001
0100
0010
1000
0001
0000
0101
0000
0000
1001
0000
0000
1100
0000
,  // measure 34
0000
0000
0010
0001
1000
0001
0010
0000
0001
0000
0100
0000
0010
0000
0000
0000
,  // measure 35
1001
0000
0000
0000
2002
0000
0000
0000
3003
0000
1001
0000
0000
0101
0000
0000
,  // measure 36
0110
0000
0110
0000
0000
1010
0000
0000
2002
0000
0000
0000
3003
0000
0000
0000
,  // measure 37
0110
0000
0000
0000
0220
0000
0000
0000
0330
0000
1100
0000
0000
0110
0000
0000
,  // measure 38
0011
0000
0011
0000
0000
1010
0000
0000
2002
0000
0000
0000
3003
0000
0000
0000
,  // measure 39
1000
0000
0100
0010
0000
0100
1000
0000
0001
0000
0100
0000
0000
0000
1000
0000
,  // measure 40
0001
0000
0100
0010
0000
0100
0001
0010
0100
0000
0100
1000
0000
1000
0010
0000
,  // measure 41
1000
0000
0001
0010
0000
0010
0001
0000
0100
0000
0010
0000
0000
0000
1000
0000
,  // measure 42
0001
0100
0001
0000
0000
0000
1000
0100
1000
0000
0001
0000
0000
0000
0000
0000
,  // measure 43
1000
0000
0001
0010
0000
1000
0010
0000
0100
0000
0001
0000
0000
0000
0010
0000
,  // measure 44
1000
0100
1000
0100
0000
0000
0010
0001
0010
0000
0010
0001
0000
0001
0100
0000
,  // measure 45
0010
0000
0001
0100
0000
0010
1000
0000
0100
0000
0000
0000
0000
0000
0000
0000
,  // measure 46
0010
0000
0000
0000
1000
0000
0001
0100
0000
0000
0001
0000
0000
0000
0000
0000
,  // measure 47
1001
0000
0000
0000
2002
0000
0000
0000
3003
0000
1010
0000
0000
0110
0000
0000
,  // measure 48
0011
0000
0110
0000
0000
0110
0000
0000
2002
0000
0000
0000
3003
0000
0000
0000
,  // measure 49
0110
0000
0000
0000
0220
0000
0000
0000
0330
0000
0101
0000
0000
1001
0000
0000
,  // measure 50
0011
0000
1010
0000
0000
1100
0000
0000
1001
0000
0000
0000
0000
0000
0000
0000
;

//---------------dance-single - BEGINNER----------------
#NOTES:
     dance-single:
     BEGINNER:
     Beginner:
     2:
     0.165,0.290,0.196,0.000,0.000: // measure 1
0000
0000
0000
0000
,  // measure 2
0000
0000
0000
0000
,  // measure 3
0000
0000
0000
0000
,  // measure 4
0000
0000
0000
0000
,  // measure 5
0001
0001
0000
0000
,  // measure 6
1000
1000
0000
0000
,  // measure 7
0001
0001
0000
0000
,  // measure 8
1000
1000
0000
0000
,  // measure 9
0001
0001
0000
0100
,  // measure 10
0100
0000
0010
0000
,  // measure 11
0001
0000
1000
0000
,  // measure 12
0010
0000
0100
0000
,  // measure 13
0010
0000
0100
0000
,  // measure 14
0010
0010
0000
0100
,  // measure 15
0100
0000
1000
0000
,  // measure 16
0001
0000
0010
0000
,  // measure 17
1000
0000
0001
0000
,  // measure 18
0100
0000
0010
0000
,  // measure 19
1000
1000
0000
1000
,  // measure 20
1000
0000
0001
0000
,  // measure 21
0001
0000
1000
0000
,  // measure 22
0010
0000
0000
0000
,  // measure 23
1000
0000
0000
0000
,  // measure 24
0100
0000
0000
0000
,  // measure 25
0001
0000
0000
0000
,  // measure 26
0100
0000
0000
0000
,  // measure 27
0000
0001
0001
0001
,  // measure 28
0000
0001
0001
0000
,  // measure 29
0000
1000
1000
1000
,  // measure 30
0000
1000
1000
0000
,  // measure 31
0000
0001
0001
0001
,  // measure 32
0000
0001
0001
0000
,  // measure 33
0000
1000
1000
1000
,  // measure 34
0000
1000
1000
0000
,  // measure 35
1001
1001
0000
1001
,  // measure 36
1001
0000
1001
0000
,  // measure 37
0110
0110
0000
0110
,  // measure 38
0110
0000
0110
0000
,  // measure 39
0001
0000
0001
0000
,  // measure 40
0010
0000
0100
0000
,  // measure 41
1000
0000
1000
0000
,  // measure 42
0100
0000
0010
0000
,  // measure 43
0001
0000
0001
0000
,  // measure 44
0100
0000
0010
0000
,  // measure 45
1000
0000
1000
0000
,  // measure 46
0100
0000
0010
0000
,  // measure 47
0110
0110
0000
0110
,  // measure 48
0110
0000
0110
0000
,  // measure 49
1001
1001
0000
1001
,  // measure 50
1001
0000
1001
0000
;
