#TITLE:Zoey 101 Official Theme Song Nick;
#SUBTITLE:;
#ARTIST:Dancing Monkeys Project;
#TITLETRANSLIT:;
#SUBTITLETRANSLIT:;
#ARTISTTRANSLIT:;
#GENRE:;
#CREDIT:Gorilla v1.1.3 (Dancing Monkeys v1.06);
#BANNER:;
#BACKGROUND:;
#LYRICSPATH:;
#CDTITLE:;
#MUSIC:Zoey 101 Official Theme Song Nick.mp3;
#OFFSET:-1.261905;
#SAMPLESTART:52.116783;
#SAMPLELENGTH:12.000000;
#SELECTABLE:YES;
#BPMS:0.000000=117.983002
;
#STOPS:
;
#BGCHANGES:;
#KEYSOUNDS:;
#ATTACKS:;

//---------------dance-single - Basic----------------
#NOTES:
     dance-single:
     Basic:
     Easy:
     3:
     0.102766,0.106958,0.000000,0.012620,0.000000,57.000000,57.000000,0.000000,1.000000,0.000000,0.000000,0.102766,0.106958,0.000000,0.012620,0.000000,57.000000,57.000000,0.000000,1.000000,0.000000,0.000000:
// measure 0
0000
0000
1000
0000
,  // measure 1
1000
0000
1000
0000
,  // measure 2
0010
0010
0010
0000
,  // measure 3
1000
0000
1000
0000
,  // measure 4
1000
0000
0010
0000
,  // measure 5
1000
0000
1000
0000
,  // measure 6
1000
0000
0001
0000
,  // measure 7
1000
0000
0010
0000
,  // measure 8
1000
0000
0010
0000
,  // measure 9
0001
0000
0100
0000
,  // measure 10
0001
0000
0100
0000
,  // measure 11
1000
0000
0010
0000
,  // measure 12
1000
0000
0010
0000
,  // measure 13
1000
0000
0100
0000
,  // measure 14
1000
0000
0001
0000
,  // measure 15
1000
0000
0010
0000
,  // measure 16
1000
0000
0010
0000
,  // measure 17
1000
0000
0001
0000
,  // measure 18
1000
0000
0010
0000
,  // measure 19
0001
0000
0100
0001
,  // measure 20
1000
0000
0001
0000
,  // measure 21
1000
0000
0010
1000
,  // measure 22
0000
0010
0000
1000
,  // measure 23
0000
0010
0000
1000
,  // measure 24
0000
0010
0000
0001
,  // measure 25
0000
0010
0000
1000
,  // measure 26
0000
0010
0000
1000
,  // measure 27
0000
0002
0000
0000
,  // measure 28
0000
0003
0000
0000
;

//---------------dance-single - Standard----------------
#NOTES:
     dance-single:
     Standard:
     Medium:
     5:
     0.277648,0.248937,0.025241,0.012620,0.000000,154.000000,152.000000,2.000000,1.000000,0.000000,0.000000,0.277648,0.248937,0.025241,0.012620,0.000000,154.000000,152.000000,2.000000,1.000000,0.000000,0.000000:
0001
0000
0001
0000
0001
0000
0100
0000
,
1000
0000
1000
0000
1000
0000
0100
0000
,
0001
0000
1000
1000
1000
0000
0010
0000
,
0001
0000
0001
0000
0001
0000
0100
0000
,
0001
0000
1000
1000
1000
0000
0010
0000
,
0001
0000
0001
0000
0001
0000
0100
0000
,
0001
0000
0100
0001
0100
0000
0001
0000
,
0001
0000
1000
1000
1000
0000
0010
0000
,
1000
0000
0001
0001
0001
0000
0100
0000
,
1000
0000
0001
0001
0001
0000
0100
0000
,
0001
0000
1000
1000
1000
0000
0100
0000
,
0001
0000
0001
0000
0001
0000
0100
0000
,
0001
0000
1000
1000
1000
0000
0010
0000
,
1000
0000
0001
0001
0001
0000
0100
0000
,
0001
0000
0100
0001
0100
0000
0001
0000
,
0001
0000
0001
0000
0001
0000
0100
0000
,
0001
0000
1000
1000
1000
0000
0010
0000
,
0001
0000
0100
0001
0100
0000
0001
0000
,
0001
0000
1000
1000
1000
0000
0010
0000
,
1000
0000
0001
0001
0001
0000
0010
0000
,
0001
0000
0100
0001
0100
0000
0001
0000
,
0001
0000
1000
1000
1000
0000
0010
0000
,
1000
0000
0001
0001
0001
0000
0100
0000
,
0001
0000
1000
1000
1000
0000
0010
0000
,
1000
0000
0001
0001
0001
0000
0100
0000
,
0001
0000
1000
1000
1000
0000
0100
0000
,
0001
0000
1000
1000
1000
0000
0010
0000
,
1000
0000
2000
0000
0000
0000
0100
0000
,
0000
0000
3000
0000
0001
0100
0010
1000
,
0001
0000
0100
0000
0000
0000
0010
0100
,
0000
0000
1000
0000
0100
0000
1000
0000
,
1000
0001
0100
0000
1001
0000
0001
0000
,
0001
0000
1001
0000
0100
0000
0000
0010
,
;

//---------------dance-single - Heavy----------------
#NOTES:
     dance-single:
     Heavy:
     Hard:
     6:
     0.328130,0.269681,0.025241,0.012620,0.000000,182.000000,180.000000,2.000000,1.000000,0.000000,0.000000,0.328130,0.269681,0.025241,0.012620,0.000000,182.000000,180.000000,2.000000,1.000000,0.000000,0.000000:
0001
0000
0001
0000
0001
0000
0100
0010
,
0001
0000
0001
0000
0001
0000
0100
0010
,
0001
0000
0010
0010
0010
0000
0001
0001
,
0001
0000
0001
0000
0001
0000
0100
0010
,
0001
0000
0010
0010
0010
0000
0001
0001
,
0001
0000
0001
0000
0001
0000
0100
0010
,
1000
0000
0100
0010
0001
0000
1000
1000
,
0001
0000
0010
0010
0010
0000
0001
0001
,
0001
0000
0010
0010
0010
0000
0001
0001
,
1000
0000
0010
0010
0010
0000
1000
1000
,
0001
0000
0100
0100
0100
0000
0001
0001
,
0001
0000
0001
0000
0001
0000
0100
0010
,
0001
0000
0010
0010
0010
0000
0001
0001
,
1000
0000
0100
0100
0100
0000
1000
1000
,
1000
0000
0100
0010
0001
0000
1000
1000
,
0001
0000
0001
0000
0001
0000
0100
0010
,
0001
0000
0010
0010
0010
0000
0001
0001
,
1000
0000
0100
0010
0001
0000
1000
1000
,
0001
0000
0010
0010
0010
0000
0001
0001
,
1000
0000
0010
0010
0010
0000
1000
1000
,
1000
0000
0100
0010
0001
0000
1000
1000
,
0001
0000
0010
0010
0010
0000
0001
0001
,
1000
0000
0010
0010
0010
0000
1000
1000
,
1000
0000
0100
0100
0100
0000
1000
1000
,
0001
0000
0010
0010
0010
0000
0001
0001
,
0001
0000
0010
0010
0010
0000
0001
0001
,
0001
0000
0100
0100
0100
0000
0001
0001
,
1000
0000
0200
0000
0000
0000
1000
0000
,
0000
0000
0300
0000
0100
0001
0100
1000
,
0001
0000
1000
0000
0000
0000
0100
1000
,
0000
0000
0001
0000
0100
0000
1000
0000
,
0001
0010
0001
0000
0011
0000
0010
0000
,
0001
0000
0110
0000
0010
1000
0000
0010
,
;
