#VERSION:0.83;
#TITLE:Zatch Bell 2nd Opening (English);
#SUBTITLE:;
#ARTIST:Dancing Monkeys Project;
#TITLETRANSLIT:;
#SUBTITLETRANSLIT:;
#ARTISTTRANSLIT:;
#GENRE:;
#ORIGIN:;
#CREDIT:Gorilla v1.1.3 (Dancing Monkeys v1.06);
#BANNER:animesher.com_gash-bell-konjiki-no-gash-bell-zatch-bell-23016.png;
#BACKGROUND:Zatch.png;
#PREVIEWVID:;
#JACKET:;
#CDIMAGE:;
#DISCIMAGE:;
#LYRICSPATH:;
#CDTITLE:;
#MUSIC:Zatch Bell 2nd Opening (English).mp3;
#OFFSET:-0.336145;
#SAMPLESTART:0.336145;
#SAMPLELENGTH:12.000000;
#SELECTABLE:YES;
#BPMS:0.000=173.999;
#STOPS:;
#DELAYS:;
#WARPS:;
#TIMESIGNATURES:0.000=4=4;
#TICKCOUNTS:0.000=4;
#COMBOS:0.000=1;
#SPEEDS:0.000=1.000=0.000=0;
#SCROLLS:0.000=1.000;
#FAKES:;
#LABELS:0.000=Song Start;
#BGCHANGES:;
#KEYSOUNDS:;
#ATTACKS:
;

//---------------dance-single - Basic----------------
#NOTEDATA:;
#CHARTNAME:;
#STEPSTYPE:dance-single;
#DESCRIPTION:Basic;
#CHARTSTYLE:;
#DIFFICULTY:Easy;
#METER:6;
#RADARVALUES:0.408516,0.379481,0.266011,0.066503,0.000000,86.000000,78.000000,8.000000,2.000000,0.000000,0.000000,0.000000,0.000000,0.000000,0.408516,0.379481,0.266011,0.066503,0.000000,86.000000,78.000000,8.000000,2.000000,0.000000,0.000000,0.000000,0.000000,0.000000;
#CREDIT:;
#NOTES:
0000
0001
0100
0000
,
1001
0010
1000
0001
,
1000
1000
0100
0010
,
1000
1001
0010
0001
,
0100
1001
0100
0010
,
0001
1000
0100
0001
,
1000
0001
1000
1000
,
0001
0100
0001
0010
,
0001
1000
0100
0001
,
0110
1000
0010
1000
,
0100
0010
1001
0010
,
1000
0001
0100
1000
,
0001
0100
1000
0010
,
1000
0001
0100
0010
,
0001
1000
0100
0010
,
0001
0100
1000
0010
,
0001
0010
1000
0010
,
1000
0001
0100
0010
,
0001
0001
1000
1000
,
0100
1001
0220
0000
,
0000
0000
0330
1001
;

//---------------dance-single - Basic----------------
#NOTEDATA:;
#CHARTNAME:;
#STEPSTYPE:dance-single;
#DESCRIPTION:Basic;
#CHARTSTYLE:;
#DIFFICULTY:Beginner;
#METER:6;
#RADARVALUES:0.190008,0.172491,0.000000,0.033251,0.000000,40.000000,40.000000,0.000000,1.000000,0.000000,0.000000,0.000000,0.000000,0.000000,0.190008,0.172491,0.000000,0.033251,0.000000,40.000000,40.000000,0.000000,1.000000,0.000000,0.000000,0.000000,0.000000,0.000000;
#CREDIT:;
#NOTES:
// measure 0
0000
0001
0000
0100
,  // measure 1
0000
0010
0000
0001
,  // measure 2
0000
1000
0000
0010
,  // measure 3
0000
1000
0000
0001
,  // measure 4
0000
0001
0000
0010
,  // measure 5
0000
1000
0000
0001
,  // measure 6
0000
0001
0000
1000
,  // measure 7
0000
0100
0000
0010
,  // measure 8
0000
1000
0000
0001
,  // measure 9
0000
1000
0000
1000
,  // measure 10
0000
0001
0000
0010
,  // measure 11
0000
0001
0000
1000
,  // measure 12
0000
0100
0000
0010
,  // measure 13
0000
0001
0000
0010
,  // measure 14
0000
1000
0000
0010
,  // measure 15
0000
0100
0000
0001
,  // measure 16
0000
0100
0000
0010
,  // measure 17
0000
0001
0000
0010
,  // measure 18
0000
0001
0000
1000
,  // measure 19
0000
0020
0000
0000
,  // measure 20
0000
0000
0030
0001
;
