#TITLE:You Didn't Know;
#SUBTITLE:;
#ARTIST:Hazbin Hotel;
#TITLETRANSLIT:;
#SUBTITLETRANSLIT:;
#ARTISTTRANSLIT:;
#GENRE:;
#CREDIT:Gorilla v1.1.3 (Dancing Monkeys v1.06);
#BANNER:;
#BACKGROUND:;
#LYRICSPATH:;
#CDTITLE:;
#MUSIC:Hazbin Hotel You Didn't Know (Sped-Up).mp3;
#OFFSET:-1.150091;
#SAMPLESTART:39.736214;
#SAMPLELENGTH:12.000000;
#SELECTABLE:YES;
#BPMS:0.000000=167.000000
;
#STOPS:
;
#BGCHANGES:;
#KEYSOUNDS:;
#ATTACKS:;

//---------------dance-single - Basic----------------
#NOTES:
     dance-single:
     Basic:
     Easy:
     3:
     0.153858,0.162388,0.000000,0.018254,0.000000,177.000000,177.000000,0.000000,3.000000,0.000000,0.000000,0.153858,0.162388,0.000000,0.018254,0.000000,177.000000,177.000000,0.000000,3.000000,0.000000,0.000000:
// measure 0
1000
0000
0010
0000
,  // measure 1
0000
0001
0000
0000
,  // measure 2
0000
0100
0000
0000
,  // measure 3
0000
0010
0000
0000
,  // measure 4
0000
1000
0000
0000
,  // measure 5
0000
1000
0000
0000
,  // measure 6
0000
1000
0000
0000
,  // measure 7
0000
0001
0000
0000
,  // measure 8
1000
0000
0000
0001
,  // measure 9
0000
1000
0000
0000
,  // measure 10
0000
0001
0000
0000
,  // measure 11
0000
0010
0000
0000
,  // measure 12
0000
1000
0000
0000
,  // measure 13
0000
0010
0000
0000
,  // measure 14
0000
0001
0001
0001
,  // measure 15
0000
0000
1000
0000
,  // measure 16
1000
0000
0010
0000
,  // measure 17
1000
0000
0010
0000
,  // measure 18
1000
0000
1000
0000
,  // measure 19
0010
0000
0001
0000
,  // measure 20
1000
0000
0001
0000
,  // measure 21
1000
0000
0010
0000
,  // measure 22
0001
0000
0010
0000
,  // measure 23
1000
0000
0010
0000
,  // measure 24
0001
0000
0010
0000
,  // measure 25
1000
0000
0010
0000
,  // measure 26
0100
0000
0001
0000
,  // measure 27
0010
0000
1000
0000
,  // measure 28
0100
0000
0001
0000
,  // measure 29
0010
0000
1000
0000
,  // measure 30
0001
0000
0010
0000
,  // measure 31
0001
0000
1000
0000
,  // measure 32
0001
0000
0100
0000
,  // measure 33
0001
0000
0010
0000
,  // measure 34
0001
0000
0010
0000
,  // measure 35
0001
0000
0010
0000
,  // measure 36
1000
0000
0010
0000
,  // measure 37
0001
0000
0100
0000
,  // measure 38
1000
0000
0001
0000
,  // measure 39
1000
0000
0010
0000
,  // measure 40
0100
0000
1000
0000
,  // measure 41
0001
0000
0010
0000
,  // measure 42
1000
0000
0100
0000
,  // measure 43
0010
0000
1000
0000
,  // measure 44
0001
0000
0010
0000
,  // measure 45
0001
0000
1000
0000
,  // measure 46
0001
0000
1000
0000
,  // measure 47
0001
0000
0100
0000
,  // measure 48
0010
0000
1000
0000
,  // measure 49
0001
0000
0000
1000
,  // measure 50
0000
0001
0000
1000
,  // measure 51
0000
0010
0000
0010
,  // measure 52
0000
0000
0001
0000
,  // measure 53
1000
0000
0100
0000
,  // measure 54
0000
0000
0010
0000
,  // measure 55
1000
0000
0001
0000
,  // measure 56
1000
0000
0010
0000
,  // measure 57
1000
0000
0000
1000
,  // measure 58
0000
0001
0000
0001
,  // measure 59
0000
0010
0000
0001
,  // measure 60
0000
0001
0000
0010
,  // measure 61
0000
1000
0000
0001
,  // measure 62
0000
0001
0000
0100
,  // measure 63
0000
0010
0000
1000
,  // measure 64
0000
0000
0100
0000
,  // measure 65
0001
0000
0100
0000
,  // measure 66
1000
0000
0001
0000
,  // measure 67
0100
0000
0100
0000
,  // measure 68
1000
0000
0010
0000
,  // measure 69
0001
0000
0010
0000
,  // measure 70
0001
0000
0100
0000
,  // measure 71
1000
0000
1000
0000
,  // measure 72
0001
0000
0100
0000
,  // measure 73
0010
0000
0010
0000
,  // measure 74
0100
0000
0010
0000
,  // measure 75
1000
0000
0100
0000
,  // measure 76
0001
0000
0010
0000
,  // measure 77
0001
0000
1000
0000
,  // measure 78
0000
1000
0000
0100
,  // measure 79
0000
0100
0000
0010
,  // measure 80
0000
0010
0000
0001
,  // measure 81
0000
0010
0000
0001
,  // measure 82
0000
0100
0000
0010
,  // measure 83
0000
0010
0000
1000
,  // measure 84
0000
0200
0000
0000
,  // measure 85
0000
0300
0000
0001
,  // measure 86
0000
0001
0000
0000
,  // measure 87
0000
0000
0000
0001
,  // measure 88
0000
1000
0000
0000
,  // measure 89
0001
0000
0000
0000
,  // measure 90
1000
0000
0001
0000
,  // measure 91
0000
0000
1000
0000
,  // measure 92
0100
0000
0000
1000
,  // measure 93
0000
0000
0000
0000
,  // measure 94
0010
0000
0001
0000
,  // measure 95
0000
0001
0000
1000
,  // measure 96
0000
0200
0000
0000
,  // measure 97
0000
0300
0000
0001
,  // measure 98
0000
0100
0000
1000
,  // measure 99
0000
0010
0000
0010
,  // measure 100
0000
0000
0000
1000
,  // measure 101
0000
0000
0100
0000
,  // measure 102
0002
0000
0000
0000
,  // measure 103
0000
0000
0000
0000
,  // measure 104
0000
0000
0000
0000
,  // measure 105
0000
0000
0000
0000
,  // measure 106
0000
0000
0000
0003
;
