#TITLE:Xmen Theme Song;
#SUBTITLE:(3);
#ARTIST:Unknown artist;
#TITLETRANSLIT:;
#SUBTITLETRANSLIT:;
#ARTISTTRANSLIT:;
#GENRE:;
#CREDIT:;
#BANNER:scale.png;
#BACKGROUND:MV5BNDU3ZTU4NTctNGIyOC00ZDgxLTliZWEtNDg0ZmNjMGE4YjU1XkEyXkFqcGdeQXVyNjYwMjU3MjA@._V1_FMjpg_UX1000_.png;
#LYRICSPATH:;
#CDTITLE:;
#MUSIC:Marvel Animation's X-Men '97 Intro Disney.mp3;
#OFFSET:0.000000;
#SAMPLESTART:0.000000;
#SAMPLELENGTH:12.000000;
#SELECTABLE:YES;
#BPMS:0.000000=125.999992
;
#STOPS:-0.020833=2.000000
;
#BGCHANGES:;
#KEYSOUNDS:;
#ATTACKS:;

//---------------dance-single - ----------------
#NOTES:
     dance-single:
     :
     Easy:
     1:
     0.130299,0.200760,0.000000,0.039656,0.000000,69.000000,69.000000,0.000000,3.000000,0.000000,0.000000,0.130299,0.200760,0.000000,0.039656,0.000000,69.000000,69.000000,0.000000,3.000000,0.000000,0.000000:
// measure 0
0000
1000
0000
0000
,  // measure 1
0100
0000
0010
0000
,  // measure 2
0100
0000
1000
0000
,  // measure 3
0001
0000
2000
0000
,  // measure 4
3000
0010
0000
0100
,  // measure 5
0000
1000
0000
0020
,  // measure 6
0000
0000
0000
0000
,  // measure 7
0000
0030
0000
0010
,  // measure 8
0000
0010
0010
0000
,  // measure 9
0100
0000
0001
0000
,  // measure 10
0010
0000
1000
0000
,  // measure 11
0100
0000
0001
0000
,  // measure 12
0010
0000
0100
0000
,  // measure 13
1000
0000
0100
0000
,  // measure 14
0001
0000
0010
0000
,  // measure 15
1000
0000
0100
0000
,  // measure 16
0010
0000
1000
0000
,  // measure 17
0100
0000
0001
0000
,  // measure 18
0010
0000
0100
0000
,  // measure 19
0010
0000
1000
0000
,  // measure 20
0100
0000
0001
0000
,  // measure 21
0010
0000
0100
0000
,  // measure 22
1000
0000
0100
0000
,  // measure 23
0010
0000
1000
0000
,  // measure 24
0100
0000
0001
0000
,  // measure 25
0010
0000
0100
0000
,  // measure 26
1000
0000
0010
0000
,  // measure 27
0100
0000
0001
0000
,  // measure 28
1000
0000
0000
0010
,  // measure 29
0010
0100
0100
0001
,  // measure 30
0001
0010
0010
0100
,  // measure 31
0100
1000
1000
0020
,  // measure 32
0000
0030
0000
0100
,  // measure 33
0000
0001
0000
0010
;
