#TITLE:Wrapped in Black;
#SUBTITLE:;
#ARTIST:Dancing Monkeys Project;
#TITLETRANSLIT:;
#SUBTITLETRANSLIT:;
#ARTISTTRANSLIT:;
#GENRE:;
#CREDIT:Gorilla v1.1.3 (Dancing Monkeys v1.06);
#BANNER:;
#BACKGROUND:;
#LYRICSPATH:;
#CDTITLE:;
#MUSIC:Wrapped in Black.mp3;
#OFFSET:-1.116100;
#SAMPLESTART:47.270294;
#SAMPLELENGTH:12.000000;
#SELECTABLE:YES;
#BPMS:0.000000=129.998993
;
#STOPS:
;
#BGCHANGES:;
#KEYSOUNDS:;
#ATTACKS:;

//---------------dance-single - Basic----------------
#NOTES:
     dance-single:
     Basic:
     Easy:
     3:
     0.224696,0.263897,0.008411,0.008411,0.000000,187.000000,186.000000,1.000000,1.000000,0.000000,0.000000,0.224696,0.263897,0.008411,0.008411,0.000000,187.000000,186.000000,1.000000,1.000000,0.000000,0.000000:
// measure 0
1000
0000
0000
0000
,  // measure 1
0001
0000
0000
0000
,  // measure 2
1000
0000
0000
0000
,  // measure 3
0001
0000
0000
0000
,  // measure 4
1000
0000
0010
0000
,  // measure 5
0100
0000
1000
0000
,  // measure 6
0001
0000
1000
0000
,  // measure 7
0001
0000
0010
0000
,  // measure 8
0100
0000
0010
0000
,  // measure 9
0100
0000
0001
0000
,  // measure 10
1000
0000
0002
0000
,  // measure 11
0000
0000
0000
0000
,  // measure 12
0003
1000
0000
0100
,  // measure 13
0000
0001
0000
0100
,  // measure 14
0000
0001
0000
0010
,  // measure 15
0010
0010
0000
0001
,  // measure 16
1000
0000
0000
0001
,  // measure 17
1000
0000
0000
1000
,  // measure 18
0001
1000
0100
0010
,  // measure 19
1000
0001
0100
0010
,  // measure 20
0001
1000
0010
0100
,  // measure 21
1000
0100
0100
0010
,  // measure 22
0001
1000
0100
0010
,  // measure 23
0001
0100
1000
1000
,  // measure 24
0001
1000
0100
0010
,  // measure 25
0001
0000
0000
1000
,  // measure 26
0001
1000
0100
0010
,  // measure 27
1000
0001
0010
0100
,  // measure 28
0001
1000
0010
0100
,  // measure 29
1000
0100
0100
0010
,  // measure 30
0001
1000
0100
0010
,  // measure 31
1000
0100
0100
0010
,  // measure 32
0001
1000
0100
0010
,  // measure 33
1000
0100
0100
0010
,  // measure 34
1000
1000
1000
1000
,  // measure 35
1000
1000
1000
1000
,  // measure 36
1000
1001
1000
1000
,  // measure 37
1000
0010
1000
0001
,  // measure 38
1000
1000
1000
1000
,  // measure 39
0001
0001
0001
0001
,  // measure 40
0001
0000
0001
1000
,  // measure 41
1000
0000
0000
1000
,  // measure 42
1000
0001
1000
1000
,  // measure 43
1000
0001
1000
1000
,  // measure 44
1000
0001
1000
1000
,  // measure 45
1000
0010
1000
0001
,  // measure 46
0001
0001
1000
1000
,  // measure 47
1000
1000
0001
0001
,  // measure 48
0001
0001
0001
0001
,  // measure 49
1000
0010
1000
0001
,  // measure 50
0001
0000
0001
1000
,  // measure 51
1000
0000
1000
0001
,  // measure 52
0001
0000
0001
1000
,  // measure 53
0001
0000
0001
1000
,  // measure 54
1000
0000
1000
0001
,  // measure 55
0001
0000
0001
1000
,  // measure 56
0001
0001
0100
0000
,  // measure 57
0000
0000
0000
0001
,  // measure 58
0000
0001
0000
1000
,  // measure 59
0000
1000
0000
0001
,  // measure 60
0000
0001
0000
1000
,  // measure 61
0000
0001
0000
0100
,  // measure 62
0000
0001
0000
0010
;

//---------------dance-single - Standard----------------
#NOTES:
     dance-single:
     Standard:
     Medium:
     5:
     0.308806,0.369456,0.218688,0.000000,0.000000,257.000000,231.000000,26.000000,0.000000,0.000000,0.000000,0.308806,0.369456,0.218688,0.000000,0.000000,257.000000,231.000000,26.000000,0.000000,0.000000,0.000000:
0001
0000
0000
0000
0000
0000
0000
0000
,
0001
0000
0000
0000
0000
0000
0000
0000
,
0001
0000
0000
0000
0000
0000
0000
0000
,
0001
0000
0000
0000
0000
0000
0000
0000
,
1000
0000
0000
0000
0000
0000
0000
0000
,
1000
0000
0000
0000
0000
0000
0001
0000
,
0001
0000
0000
0000
0010
0000
0000
0000
,
0001
0000
0000
0000
0100
0000
0000
0000
,
1000
0000
0000
0000
0100
0000
0000
0000
,
1000
0000
1000
0000
0000
0000
0001
0000
,
1000
0000
0100
0000
0000
0000
1000
0000
,
1000
0000
0010
0000
0000
0000
1000
0000
,
0001
0000
0010
0000
0000
0000
0001
0000
,
0001
0000
0100
0000
0000
0000
0001
0000
,
0001
0000
0010
0000
0000
0000
0001
0000
,
1000
0000
0001
0000
0010
0000
1000
0000
,
0001
0000
0100
0000
0000
0000
0001
0000
,
0001
0000
0000
0000
0000
0000
0001
0001
,
1000
0000
0101
0000
0001
0000
0100
0000
,
1000
0000
0011
0000
0001
0000
0010
0000
,
0001
0000
1010
0000
1000
0000
0010
0000
,
1000
0000
0110
0000
0001
0000
1000
1000
,
1000
0000
0101
0000
0001
0000
0100
0000
,
0001
0000
1100
0000
0001
0000
0001
0000
,
1000
0000
0101
0000
0001
0000
0100
0000
,
0001
0000
0000
0000
0000
0000
0100
0000
,
1000
0000
0101
0000
0001
0000
0100
0000
,
1000
0000
0101
0000
0001
0000
0100
0000
,
0001
0000
1100
0000
1000
0000
0100
0000
,
1000
0000
0110
0000
0001
0000
1000
1000
,
1000
0000
0101
0000
0001
0000
0100
0000
,
1000
0000
0110
0000
0001
0000
1000
1000
,
1000
0000
0101
0000
0001
0000
0100
0000
,
1000
0000
0110
0000
0001
0000
1000
1000
,
0001
0000
1100
0000
0001
0000
0001
0100
,
0001
0000
1100
0000
0001
0000
0001
0100
,
1000
0000
0011
0000
1000
0000
1000
0010
,
0001
1000
0001
1000
0100
0000
0010
0000
,
0001
0000
1100
0000
0001
0000
0001
0100
,
1000
0000
0011
0000
1000
0000
1000
0010
,
0001
0000
0100
0000
0100
0000
0001
0000
,
0001
0000
0000
0000
0000
0000
0001
0001
,
0001
0000
1100
0000
0001
0000
0001
0100
,
0001
0000
1100
0000
0001
0000
0001
0100
,
1000
0000
0011
0000
1000
0000
1000
0010
,
0001
1000
0001
1000
0100
0000
0010
0000
,
0001
0000
1100
0000
0001
0000
0001
0100
,
0001
0000
1100
0000
0001
0000
0001
0100
,
0001
0000
1100
0000
0001
0000
0001
0100
,
0001
1000
0001
1000
0100
0000
0010
0000
,
0001
0000
0100
0000
0100
0000
0001
0000
,
1000
0000
0100
0000
0100
0000
1000
0000
,
0001
0000
0100
0000
0100
0000
0001
0000
,
1000
0000
0100
0000
0100
0000
1000
0000
,
0001
0000
0100
0000
0100
0000
0001
0000
,
1000
0000
0100
0000
0100
0000
1000
0000
,
1000
0000
1000
0000
0100
0000
0000
0000
,
1000
0000
0000
0000
0000
0000
0001
0000
,
1000
0000
1000
0000
0000
0000
0001
0000
,
0001
0000
0001
0000
0000
0000
1000
0000
,
0001
0000
0001
0000
0000
0000
1000
0000
,
1000
0000
0100
0000
0000
0000
1000
0000
,
0001
0000
0100
0000
0000
0000
0001
0000
,
;

//---------------dance-single - Heavy----------------
#NOTES:
     dance-single:
     Heavy:
     Hard:
     6:
     0.348458,0.395846,0.218688,0.000000,0.000000,290.000000,264.000000,26.000000,0.000000,0.000000,0.000000,0.348458,0.395846,0.218688,0.000000,0.000000,290.000000,264.000000,26.000000,0.000000,0.000000,0.000000:
1000
0000
0000
0000
0000
0000
0000
0000
,
0001
0000
0000
0000
0000
0000
0000
0000
,
1000
0000
0000
0000
0000
0000
0000
0000
,
0001
0000
0000
0000
0000
0000
0000
0000
,
0001
0000
0000
0000
0000
0000
0000
0000
,
1000
0000
0000
0000
0000
0000
0010
0000
,
0001
0000
0000
0000
1000
0000
0000
0000
,
1000
0000
0000
0000
0001
0000
0000
0000
,
1000
0000
0000
0000
0001
0000
0000
0000
,
1000
0000
1000
0000
0000
0000
0100
0000
,
0001
0000
0100
0000
0100
0000
0001
0000
,
0001
0000
0100
0000
0100
0000
0001
0000
,
0001
0000
0010
0000
0010
0000
0001
0000
,
0001
0000
0010
0000
0010
0000
0001
0000
,
0001
0000
0100
0000
0100
0000
0001
0000
,
1000
0000
0100
0000
0000
0000
1000
0001
,
0001
0000
0010
0000
0010
0000
0100
0000
,
0001
0000
0000
0000
0000
1000
1000
1000
,
1000
0000
0110
0000
0001
0000
0010
0001
,
0001
0000
0110
0000
1000
0000
0100
1000
,
0001
0000
0110
0000
1000
0000
0010
1000
,
1000
0000
1100
0000
0001
0000
1000
1000
,
1000
0000
0110
0000
0001
0000
0010
0001
,
0001
0000
1100
0000
0001
0000
0001
0001
,
1000
0000
0110
0000
0001
0000
0010
0001
,
0001
0000
0000
0000
0000
0000
0100
0100
,
1000
0000
0110
0000
0001
0000
0010
0001
,
0001
0000
0110
0000
1000
0000
0100
1000
,
0001
0000
0110
0000
1000
0000
0010
1000
,
1000
0000
1100
0000
0001
0000
1000
1000
,
1000
0000
0110
0000
0001
0000
0010
0001
,
1000
0000
1100
0000
0001
0000
1000
1000
,
1000
0000
0110
0000
0001
0000
0010
0001
,
1000
0000
1100
0000
0001
0000
1000
1000
,
1000
0000
0101
0000
0001
0000
0001
0010
,
0001
0000
1010
0000
1000
0000
1000
0100
,
1000
0000
0101
0000
0001
0000
0001
0010
,
0001
0100
0001
0010
0100
0000
1000
1000
,
1000
0000
0101
0000
0001
0000
0001
0010
,
0001
0000
1010
0000
1000
0000
1000
0100
,
0001
0000
1000
0000
1000
0000
0010
0100
,
0001
0000
0000
0000
0000
1000
1000
1000
,
1000
0000
0101
0000
0001
0000
0001
0010
,
0001
0000
1100
0000
1000
0000
1000
0010
,
0001
0000
1100
0000
1000
0000
1000
0010
,
0001
0100
0001
0010
0100
0000
1000
1000
,
1000
0000
0101
0000
0001
0000
0001
0010
,
0001
0000
1010
0000
1000
0000
1000
0100
,
1000
0000
0011
0000
0001
0000
0001
0100
,
0001
0100
0001
0010
0100
0000
1000
1000
,
0001
0000
1000
0000
1000
0000
0010
0100
,
1000
0000
0001
0000
0001
0000
0010
0100
,
0001
0000
1000
0000
1000
0000
0010
0100
,
0001
0000
1000
0000
1000
0000
0100
0010
,
1000
0000
0001
0000
0001
0000
0100
0010
,
1000
0000
0001
0000
0001
0000
0010
0100
,
0001
0000
0001
0100
0001
0000
0000
0000
,
1000
0000
0000
0000
0000
0000
0010
0000
,
1000
0000
1000
0000
0000
0000
0100
0000
,
1000
0000
1000
0000
0000
0000
0010
0000
,
1000
0000
1000
0000
0000
0000
0100
0000
,
0001
0000
0100
0000
0100
0000
0001
0000
,
0001
0000
0100
0000
0100
0000
0001
0000
,
;
