#TITLE:onlymp3.to - Witch Doctor Alvin The Chipmunks Chris Classic-9kld18pWQdI-192k-1696891720;
#SUBTITLE:;
#ARTIST:Dancing Monkeys Project;
#TITLETRANSLIT:;
#SUBTITLETRANSLIT:;
#ARTISTTRANSLIT:;
#GENRE:;
#CREDIT:Gorilla v1.1.3 (Dancing Monkeys v1.06);
#BANNER:;
#BACKGROUND:;
#LYRICSPATH:;
#CDTITLE:;
#MUSIC:onlymp3.to - Witch Doctor Alvin The Chipmunks Chris Classic-9kld18pWQdI-192k-1696891720.mp3;
#OFFSET:-0.810813;
#SAMPLESTART:48.421230;
#SAMPLELENGTH:12.000000;
#SELECTABLE:YES;
#BPMS:0.000000=126.022995
;
#STOPS:139.000000=1.904000,
235.000000=1.904000
;
#BGCHANGES:;
#KEYSOUNDS:;
#ATTACKS:;

//---------------dance-single - Basic----------------
#NOTES:
     dance-single:
     Basic:
     Easy:
     6:
     0.376072,0.427713,0.734907,0.000000,0.000000,480.000000,346.000000,134.000000,0.000000,0.000000,0.000000,0.376072,0.427713,0.734907,0.000000,0.000000,480.000000,346.000000,134.000000,0.000000,0.000000,0.000000:
// measure 0
0000
0000
0000
0001
,  // measure 1
0000
0010
0000
0000
,  // measure 2
0000
0001
0000
0000
,  // measure 3
0000
0001
0000
1000
,  // measure 4
0001
0100
0100
0011
,  // measure 5
1000
0100
0010
1010
,  // measure 6
1001
1010
1100
1001
,  // measure 7
1000
0100
0010
1010
,  // measure 8
0001
1000
0100
0011
,  // measure 9
1000
0100
0010
1010
,  // measure 10
1001
1010
1100
1001
,  // measure 11
1000
0100
0010
1010
,  // measure 12
0001
1000
0100
0011
,  // measure 13
1000
0100
0010
1010
,  // measure 14
1001
1010
1100
1001
,  // measure 15
1000
0100
0010
1010
,  // measure 16
0001
1000
0100
0011
,  // measure 17
1000
0100
0010
1010
,  // measure 18
0001
0000
0100
1100
,  // measure 19
1000
0100
0010
1010
,  // measure 20
1001
1100
1010
1001
,  // measure 21
1010
1000
0001
0101
,  // measure 22
0001
1000
0100
0011
,  // measure 23
1000
0100
0010
1010
,  // measure 24
1100
1010
1001
1100
,  // measure 25
1001
1010
1100
0001
,  // measure 26
1000
0100
0001
0011
,  // measure 27
0001
1000
0100
0011
,  // measure 28
1000
0100
0010
1010
,  // measure 29
1001
1010
1100
1001
,  // measure 30
1000
0100
0010
1010
,  // measure 31
0001
1000
0100
0011
,  // measure 32
1000
0101
0010
1010
,  // measure 33
1100
1010
1001
1010
,  // measure 34
1001
1010
1001
0100
,  // measure 35
1001
0000
0100
0011
,  // measure 36
1000
0100
0010
1010
,  // measure 37
1000
1001
1010
1001
,  // measure 38
1000
0100
0010
1010
,  // measure 39
0001
1000
0100
0011
,  // measure 40
1000
0100
0010
1010
,  // measure 41
1001
0100
0100
0011
,  // measure 42
1000
1000
0001
0101
,  // measure 43
0001
1000
0100
0011
,  // measure 44
1000
0100
0010
1010
,  // measure 45
0001
0100
0010
0100
,  // measure 46
1001
0100
0010
1010
,  // measure 47
0001
1010
0100
0011
,  // measure 48
1000
0100
0010
1010
,  // measure 49
0001
0010
0100
0011
,  // measure 50
1000
1010
0001
0101
,  // measure 51
0001
0100
0010
1000
,  // measure 52
0001
0110
0010
1100
,  // measure 53
0001
0100
0010
1000
,  // measure 54
0001
0110
0010
1100
,  // measure 55
0001
0100
0010
0100
,  // measure 56
0001
0110
0010
1100
,  // measure 57
1001
0100
0010
1010
,  // measure 58
1001
1001
0010
0100
,  // measure 59
1001
0000
0100
0011
,  // measure 60
1000
0100
0010
1010
,  // measure 61
1001
1010
1100
1001
,  // measure 62
1000
0100
0010
1010
,  // measure 63
0001
1000
0100
0011
,  // measure 64
1000
0100
0010
1010
,  // measure 65
1000
1001
1000
1001
,  // measure 66
1000
0010
0100
0010
,  // measure 67
1001
0000
0100
0011
,  // measure 68
1000
0101
0010
1010
,  // measure 69
1010
1100
1100
1001
,  // measure 70
1000
0010
0100
0010
,  // measure 71
1001
0000
0100
0011
,  // measure 72
1000
0100
0010
1010
,  // measure 73
0001
1000
0100
0011
,  // measure 74
0000
1000
0101
0010
,  // measure 75
1001
0000
0100
0011
,  // measure 76
1000
0100
0010
1010
,  // measure 77
1001
1000
0110
1001
,  // measure 78
1000
0001
0100
0000
0010
0000
1010
0000
,  // measure 79
0001
1000
0100
0011
,  // measure 80
1000
0100
0010
1010
,  // measure 81
0001
1000
0100
0011
,  // measure 82
1000
0010
0100
0010
,  // measure 83
1001
0010
0100
0011
,  // measure 84
1000
0100
0010
1010
,  // measure 85
0001
1010
0100
1001
,  // measure 86
1000
0010
0100
0010
,  // measure 87
1001
0000
0100
0011
,  // measure 88
1000
0100
0010
1010
,  // measure 89
0001
0010
0100
1000
,  // measure 90
1010
1000
0001
0000
,  // measure 91
0000
0000
0000
0001
;

//---------------dance-single - Standard----------------
#NOTES:
     dance-single:
     Standard:
     Medium:
     7:
     0.437183,0.402553,0.422297,0.000000,0.000000,558.000000,481.000000,77.000000,0.000000,0.000000,0.000000,0.437183,0.402553,0.422297,0.000000,0.000000,558.000000,481.000000,77.000000,0.000000,0.000000,0.000000:
0000
0000
0000
0000
0002
0000
0001
0000
,
0001
0000
1000
0000
0001
0000
0000
0000
,
1000
0000
1000
0000
0000
0000
0000
0000
,
0000
0000
0001
0000
0100
0000
0003
1000
,
1000
0000
0100
0010
0100
0000
0011
0000
,
0001
0100
0010
1000
0010
0000
0011
0000
,
1000
0000
1000
0100
1000
0000
0011
0000
,
0001
0100
0010
1000
0010
0000
0011
0000
,
1000
0000
0100
0010
0100
0000
0011
0000
,
0001
0100
0010
1000
0010
0000
0011
0000
,
1000
0000
1000
0100
1000
0000
0011
0000
,
0001
0100
0010
1000
0010
0000
0011
0000
,
1000
0000
0100
0010
0100
0000
0011
0000
,
0001
0100
0010
1000
0010
0000
0011
0000
,
1000
0000
1000
0100
1000
0000
0011
0000
,
0001
0100
0010
1000
0010
0000
0011
0000
,
1000
0000
0100
0010
0100
0000
0011
0000
,
0001
0100
0010
1000
0010
0000
0011
0000
,
0001
0000
0001
1000
0100
0000
0101
0000
,
0001
0100
0010
1000
0010
0000
0011
0000
,
1000
0000
1000
0100
1000
0000
0011
0000
,
1000
0100
1000
0001
1000
0000
1100
0000
,
1000
0000
0100
0010
0100
0000
0011
0000
,
0001
0100
0010
1000
0010
0000
0011
0000
,
1000
0000
1000
0100
1000
0000
0011
0000
,
0001
1000
0001
0100
0100
0000
0000
0000
,
0000
0000
0000
0000
1000
0000
0101
0000
,
1000
0000
0100
0010
0100
0000
0011
0000
,
0001
0100
0010
1000
0010
0000
0011
0000
,
1000
0000
1000
0100
1000
0000
0011
0000
,
0001
0100
0010
1000
0010
0000
0011
0000
,
1000
0000
0100
0010
0100
0000
0011
0000
,
0001
0100
0010
1000
0010
0000
0011
0000
,
1000
0000
1000
0100
1000
0000
0011
0000
,
0001
1000
0001
0100
0100
0000
0000
0000
,
1000
0000
0100
0010
0100
0000
0011
0000
,
0001
0100
0010
1000
0010
0000
0011
0000
,
1000
0000
1000
0100
1000
0000
0011
0000
,
0001
0100
0010
1000
0010
0000
0011
0000
,
1000
0000
0100
0010
0100
0000
0011
0000
,
0001
0100
0010
1000
0010
0000
0011
0000
,
1000
0001
0010
0100
1000
0000
0110
0000
,
1000
0100
1000
0001
1000
0000
1100
0000
,
1000
0000
0100
0010
0100
0000
0011
0000
,
0001
0100
0010
1000
0010
0000
0011
0000
,
0001
0000
0000
0100
0010
1000
0001
0100
,
0001
0100
0010
1000
0010
0000
0011
0000
,
1000
0000
0100
0010
0100
0000
0011
0000
,
0001
0100
0010
1000
0010
0000
0011
0000
,
1000
0000
0100
0010
0100
0000
0011
0000
,
1000
0100
1000
0001
1000
0000
1100
0000
,
1000
0100
1000
0000
0100
0000
1000
0010
,
1000
0000
0110
0000
0100
0000
1100
0000
,
1000
0100
1000
0000
0100
0000
1000
0010
,
1000
0000
0110
0000
0100
0000
1100
0000
,
1000
0100
1000
0000
0100
0000
1000
0010
,
1000
0000
0110
0000
0100
0000
1100
0000
,
0001
0100
0010
1000
0010
0000
0011
0000
,
1000
1000
1000
0000
0000
0000
0000
0000
,
1000
0000
0100
0010
0100
0000
0011
0000
,
0001
0100
0010
1000
0010
0000
0011
0000
,
1000
0000
1000
0100
1000
0000
0011
0000
,
0001
0100
0010
1000
0010
0000
0011
0000
,
1000
0000
0100
0010
0100
0000
0011
0000
,
0001
0100
0010
1000
0010
0000
0011
0000
,
1000
0000
1000
0100
1000
0000
0011
0000
,
1000
0010
0100
0100
0010
0000
1000
0100
,
1000
0000
0100
0010
0100
0000
0011
0000
,
0001
0100
0010
1000
0010
0000
0011
0000
,
1000
0000
1000
0100
1000
0000
0011
0000
,
1000
0010
0100
0100
0010
0000
1000
0100
,
1000
0000
0100
0010
0100
0000
0011
0000
,
0001
0100
0010
1000
0010
0000
0011
0000
,
1000
0000
0100
0010
0100
0000
0011
0000
,
1000
0000
0001
0000
1010
0000
0001
1000
,
1000
0000
0100
0010
0100
0000
0011
0000
,
0001
0100
0010
1000
0010
0000
0011
0000
,
1000
0000
1000
0100
1000
0000
0011
0000
,
0001
0100
0010
1000
0010
0000
0011
0000
,
1000
0000
0100
0010
0100
0000
0011
0000
,
0001
0100
0010
1000
0010
0000
0011
0000
,
1000
0000
0100
0010
0100
0000
0011
0000
,
1000
0010
0100
0100
0010
0000
1000
0100
,
1000
0000
0100
0010
0100
0000
0011
0000
,
0001
0100
0010
1000
0010
0000
0011
0000
,
1000
0000
1000
0100
1000
0000
0011
0000
,
1000
0010
0100
0100
0010
0000
1000
0100
,
1000
0000
0100
0010
0100
0000
0011
0000
,
0001
0100
0010
1000
0010
0000
0011
0000
,
0000
0000
1000
0100
0010
0000
0001
0100
,
0001
1000
0100
0010
0000
0000
0000
0000
,
0000
0000
0000
0000
0000
0000
0001
0000
,
;

//---------------dance-single - Heavy----------------
#NOTES:
     dance-single:
     Heavy:
     Hard:
     7:
     0.452070,0.402553,0.449719,0.000000,0.000000,577.000000,495.000000,82.000000,0.000000,0.000000,0.000000,0.452070,0.402553,0.449719,0.000000,0.000000,577.000000,495.000000,82.000000,0.000000,0.000000,0.000000:
0000
0000
0000
0000
0002
0000
0001
0000
,
0001
0000
1000
0000
0010
0000
0001
0000
,
1000
0000
1000
0000
0000
0000
0000
0000
,
0001
0000
0010
0000
1000
0000
0003
1000
,
1000
0000
0001
0100
0001
0000
0110
0000
,
0001
0010
0100
1000
0010
0000
0101
0000
,
0001
0000
0001
0100
0010
0000
1010
0000
,
0001
0010
0100
1000
0010
0000
0101
0000
,
1000
0000
0001
0100
0001
0000
0110
0000
,
0001
0010
0100
1000
0010
0000
0101
0000
,
0001
0000
0001
0100
0010
0000
1010
0000
,
0001
0010
0100
1000
0010
0000
0101
0000
,
1000
0000
0001
0100
0001
0000
0110
0000
,
0001
0010
0100
1000
0010
0000
0101
0000
,
0001
0000
0001
0100
0010
0000
1010
0000
,
0001
0010
0100
1000
0010
0000
0101
0000
,
1000
0000
0001
0100
0001
0000
0110
0000
,
0001
0010
0100
1000
0010
0000
0101
0000
,
1000
0000
1000
0001
0100
0000
1010
0000
,
0001
0010
0100
1000
0010
0000
0101
0000
,
0001
0000
0001
0100
0010
0000
1010
0000
,
1000
0100
1000
0010
0100
0000
0110
0000
,
1000
0000
0001
0100
0001
0000
0110
0000
,
0001
0010
0100
1000
0010
0000
0101
0000
,
0001
0000
0001
0100
0010
0000
1010
0000
,
1000
0100
0010
0001
0001
0010
0100
1000
,
0000
0000
1000
1000
0001
0000
1010
0000
,
1000
0000
0001
0100
0001
0000
0110
0000
,
0001
0010
0100
1000
0010
0000
0101
0000
,
0001
0000
0001
0100
0010
0000
1010
0000
,
0001
0010
0100
1000
0010
0000
0101
0000
,
1000
0000
0001
0100
0001
0000
0110
0000
,
0001
0010
0100
1000
0010
0000
0101
0000
,
0001
0000
0001
0100
0010
0000
1010
0000
,
1000
0100
0010
0001
0001
0010
0100
1000
,
1000
0000
0001
0100
0001
0000
0110
0000
,
0001
0010
0100
1000
0010
0000
0101
0000
,
0001
0000
0001
0100
0010
0000
1010
0000
,
0001
0010
0100
1000
0010
0000
0101
0000
,
1000
0000
0001
0100
0001
0000
0110
0000
,
0001
0010
0100
1000
0010
0000
0101
0000
,
0001
0100
0001
0100
0001
0000
1010
0000
,
1000
0100
1000
0010
0100
0000
0110
0000
,
1000
0000
0001
0100
0001
0000
0110
0000
,
0001
0010
0100
1000
0010
0000
0101
0000
,
1000
0100
0100
0010
0100
0000
1100
0000
,
0001
0010
0100
1000
0010
0000
0101
0000
,
1000
0000
0001
0100
0001
0000
0110
0000
,
0001
0010
0100
1000
0010
0000
0101
0000
,
1000
0000
0001
0100
0001
0000
0110
0000
,
1000
0100
1000
0010
0100
0000
0110
0000
,
1000
0100
0001
0000
0100
0010
0100
0010
,
1000
0000
1100
0000
0100
0000
1001
0000
,
1000
0100
0001
0000
0100
0010
0100
0010
,
1000
0000
1100
0000
0100
0000
1001
0000
,
1000
0100
0001
0000
0100
0010
0100
0010
,
1000
0000
1100
0000
0100
0000
1001
0000
,
0001
0010
0100
1000
0010
0000
0101
0000
,
1000
1000
1000
0010
0000
0000
0000
0000
,
1000
0000
0001
0100
0001
0000
0110
0000
,
0001
0010
0100
1000
0010
0000
0101
0000
,
0001
0000
0001
0100
0010
0000
1010
0000
,
0001
0010
0100
1000
0010
0000
0101
0000
,
1000
0000
0001
0100
0001
0000
0110
0000
,
0001
0010
0100
1000
0010
0000
0101
0000
,
0001
0000
0001
0100
0010
0000
1010
0000
,
1000
0010
1000
1000
0010
0000
1100
0000
,
1000
0000
0001
0100
0001
0000
0110
0000
,
0001
0010
0100
1000
0010
0000
0101
0000
,
0001
0000
0001
0100
0010
0000
1010
0000
,
1000
0010
1000
1000
0010
0000
1100
0000
,
1000
0000
0001
0100
0001
0000
0110
0000
,
0001
0010
0100
1000
0010
0000
0101
0000
,
1000
0000
0001
0100
0001
0000
0110
0000
,
1000
0000
0010
0000
0011
0000
0001
0010
,
1000
0000
0001
0100
0001
0000
0110
0000
,
0001
0010
0100
1000
0010
0000
0101
0000
,
0001
0000
0001
0100
0010
0000
1010
0000
,
0001
0010
0100
1000
0010
0000
0101
0000
,
1000
0000
0001
0100
0001
0000
0110
0000
,
0001
0010
0100
1000
0010
0000
0101
0000
,
1000
0000
0001
0100
0001
0000
0110
0000
,
1000
0010
1000
1000
0010
0000
1100
0000
,
1000
0000
0001
0100
0001
0000
0110
0000
,
0001
0010
0100
1000
0010
0000
0101
0000
,
0001
0000
0001
0100
0010
0000
1010
0000
,
1000
0010
1000
1000
0010
0000
1100
0000
,
1000
0000
0001
0100
0001
0000
0110
0000
,
0001
0010
0100
1000
0010
0000
0101
0000
,
0000
0000
1000
0010
0100
0100
0001
0010
,
0001
0100
0001
1000
0001
0100
0100
0000
,
0000
0000
0000
0000
0000
0000
0001
0000
,
;
