#VERSION:0.83;
#TITLE:onlymp3.to - OHEY Wish feat. Marluxiam -yndyMZcIGfs-192k-1696862464;
#SUBTITLE:;
#ARTIST:Dancing Monkeys Project;
#TITLETRANSLIT:;
#SUBTITLETRANSLIT:;
#ARTISTTRANSLIT:;
#GENRE:;
#ORIGIN:;
#CREDIT:Gorilla v1.1.3 (Dancing Monkeys v1.06);
#BANNER:;
#BACKGROUND:;
#PREVIEWVID:;
#JACKET:;
#CDIMAGE:;
#DISCIMAGE:;
#LYRICSPATH:;
#CDTITLE:;
#MUSIC:onlymp3.to - OHEY Wish feat. Marluxiam -yndyMZcIGfs-192k-1696862464.mp3;
#OFFSET:-0.294625;
#SAMPLESTART:43.767540;
#SAMPLELENGTH:12.000000;
#SELECTABLE:YES;
#BPMS:0.000=138.017;
#STOPS:;
#DELAYS:;
#WARPS:;
#TIMESIGNATURES:0.000=4=4;
#TICKCOUNTS:0.000=4;
#COMBOS:0.000=1;
#SPEEDS:0.000=2.000=0.000=0;
#SCROLLS:0.000=1.000;
#FAKES:;
#LABELS:0.000=Song Start;
#BGCHANGES:;
#KEYSOUNDS:;
#ATTACKS:
;

//---------------dance-single - Basic----------------
#NOTEDATA:;
#CHARTNAME:Basic;
#STEPSTYPE:dance-single;
#DESCRIPTION:Basic;
#CHARTSTYLE:;
#DIFFICULTY:Easy;
#METER:6;
#RADARVALUES:0.269183,0.306195,0.038066,0.085649,0.000000,198.000000,194.000000,4.000000,9.000000,0.000000,0.000000,0.000000,0.000000,0.000000,0.269183,0.306195,0.038066,0.085649,0.000000,198.000000,194.000000,4.000000,9.000000,0.000000,0.000000,0.000000,0.000000,0.000000;
#CREDIT:Basic;
#NOTES:
// measure 0
0000
0000
0000
0000
0000
0000
0000
0001
,  // measure 1
0000
0000
0000
0000
0000
0000
0000
0001
,  // measure 2
0000
0000
0000
0000
0000
0000
0000
0001
,  // measure 3
0000
0000
0000
0200
,  // measure 4
0000
0000
0000
0320
,  // measure 5
0000
0000
0000
2030
,  // measure 6
0000
0000
0000
3200
,  // measure 7
0000
0000
0000
0300
,  // measure 8
1000
0010
0100
1000
,  // measure 9
1000
0001
1000
0001
,  // measure 10
1000
0001
0100
0001
,  // measure 11
1000
0001
1000
0001
,  // measure 12
1000
0010
0100
1000
,  // measure 13
1000
0001
1000
0001
,  // measure 14
0001
1000
0010
1000
,  // measure 15
1000
0001
1000
0001
,  // measure 16
1000
0010
0100
1000
,  // measure 17
1000
0001
1000
0001
,  // measure 18
1000
0001
0100
0001
,  // measure 19
0001
1000
0100
1000
,  // measure 20
1000
0010
0100
1000
,  // measure 21
1000
0001
1000
0001
,  // measure 22
1000
0001
1000
0001
,  // measure 23
0001
0010
1001
0001
,  // measure 24
1000
0010
0100
1000
,  // measure 25
1000
0001
1000
0001
,  // measure 26
0001
1000
0100
1000
,  // measure 27
0001
1000
0010
1000
,  // measure 28
1000
0010
0100
1000
,  // measure 29
1000
0001
1000
0001
,  // measure 30
1000
0001
1000
0001
,  // measure 31
1000
1000
0100
1000
,  // measure 32
1001
0010
0100
1000
,  // measure 33
0001
0001
1000
0001
,  // measure 34
1000
0001
0100
0001
,  // measure 35
1000
0001
1000
0001
,  // measure 36
1000
0010
0100
1000
,  // measure 37
1000
0001
1000
0001
,  // measure 38
1000
0001
1000
0001
,  // measure 39
1000
1000
0001
0100
,  // measure 40
0010
2000
0000
0000
,  // measure 41
3000
0100
0001
0002
,  // measure 42
0000
0100
0100
0203
,  // measure 43
0000
0010
0000
0300
,  // measure 44
0001
1000
1000
0002
,  // measure 45
0000
0000
0000
0003
,  // measure 46
0100
0010
0001
2000
,  // measure 47
0000
0000
0000
3000
,  // measure 48
1000
0010
0100
1000
,  // measure 49
1000
0001
1001
0010
,  // measure 50
1000
0001
1000
1001
,  // measure 51
0001
1000
0100
0001
,  // measure 52
1000
0010
0100
0001
,  // measure 53
1000
0001
1000
0001
,  // measure 54
0001
1000
0001
1000
,  // measure 55
1000
0001
1000
0001
,  // measure 56
1000
0010
0100
1000
,  // measure 57
0001
0010
0100
1000
,  // measure 58
1000
0000
0010
0000
;

//---------------dance-single - Standard----------------
#NOTEDATA:;
#CHARTNAME:Standard;
#STEPSTYPE:dance-single;
#DESCRIPTION:Standard;
#CHARTSTYLE:;
#DIFFICULTY:Medium;
#METER:7;
#RADARVALUES:0.409212,0.417539,0.399695,0.019033,0.000000,301.000000,259.000000,42.000000,2.000000,0.000000,0.000000,0.000000,0.000000,0.000000,0.409212,0.417539,0.399695,0.019033,0.000000,301.000000,259.000000,42.000000,2.000000,0.000000,0.000000,0.000000,0.000000,0.000000;
#CREDIT:Standard;
#NOTES:
0000
0000
0000
0000
0000
0000
0000
0001
,
0000
0000
0000
0000
0000
0000
0000
1000
,
0000
0000
0000
0000
0000
0000
0000
0001
,
0000
0000
0000
0000
0000
0000
0002
0000
,
0001
0000
1000
0000
1000
0000
0002
0000
,
1000
0000
0100
0000
1000
0000
2003
0000
,
0001
0000
0100
0000
0001
0000
3200
0000
,
0001
0000
0010
0000
0100
0000
0300
1000
,
0001
0000
0100
0000
0011
0000
0001
0010
,
1000
0000
0001
0000
0011
0000
0100
1000
,
0001
0000
1000
0000
1100
0000
0010
0001
,
1000
0000
0001
0000
0101
0000
0010
1000
,
0001
0000
0100
0000
0011
0000
0001
0010
,
1000
0000
0001
0000
0011
0000
0100
1000
,
0001
0000
1000
0000
1010
0000
0100
0001
,
0001
0000
1000
0000
1100
0000
0010
0001
,
0001
0000
0100
0000
0011
0000
0001
0010
,
1000
0000
0001
0000
0011
0000
0100
1000
,
1000
0000
0001
0000
0101
0000
0010
1000
,
0001
0000
1000
0000
1010
0000
0100
0001
,
0001
0000
0100
0000
0011
0000
0001
0010
,
1000
0000
0001
0000
0011
0000
0100
1000
,
1000
0000
0001
0000
0011
0000
0100
1000
,
0001
0010
0001
0000
0110
0000
1000
0001
,
0001
0000
0100
0000
0011
0000
0001
0010
,
1000
0000
0001
0000
0011
0000
0100
1000
,
1000
0000
0001
0000
0011
0000
0100
1000
,
1000
0000
0001
0000
0101
0000
0010
1000
,
0001
0000
0100
0000
0011
0000
0001
0010
,
1000
0000
0001
0000
0011
0000
0100
1000
,
0001
0000
1000
0000
1010
0000
0100
0001
,
1000
0000
0001
0000
0101
0000
0010
1000
,
0001
0000
0100
0000
0011
0000
0001
0010
,
1000
0000
0001
0000
0011
0000
0100
1000
,
0001
0000
1000
0000
1010
0000
0100
0001
,
1000
0000
0001
0000
0011
0000
0100
1000
,
0001
0000
0100
0000
0011
0000
0001
0010
,
1000
0000
0001
0000
0011
0000
0100
1000
,
1000
0000
0001
0000
0011
0000
0100
1000
,
1000
0000
0001
0000
0011
0000
0200
0000
,
0001
0000
1000
0000
1000
0000
0200
0000
,
1000
0000
0100
0000
1000
0000
0302
0000
,
1000
0000
0100
0000
1000
0000
0002
0000
,
0001
0000
0010
0000
0001
0000
0103
0001
,
0001
0000
1000
1000
1000
0000
0020
0000
,
1000
0000
0100
0000
1000
0000
0020
0000
,
1000
0000
0100
0000
1000
0000
0020
0000
,
0001
0000
0010
0000
0100
0000
0030
1000
,
0001
0000
0100
0000
0011
0000
0001
0010
,
1000
0000
0001
0000
0011
0000
0100
1000
,
1000
0000
0001
0000
0101
0000
0010
1000
,
1000
0000
0001
0000
0011
0000
0100
1000
,
0001
0000
0100
0000
0011
0000
0001
0010
,
1000
0000
0001
0000
0011
0000
0100
1000
,
1000
0000
0001
0000
0101
0000
0010
1000
,
1000
0000
0001
0000
0101
0000
0010
1000
,
0001
0000
0100
0000
0011
0000
0001
0010
,
1000
0001
0010
0000
1010
0000
0001
0100
,
0001
0000
0100
0000
0001
0000
0000
0000
,
;

//---------------dance-single - Heavy----------------
#NOTEDATA:;
#CHARTNAME:Heavy;
#STEPSTYPE:dance-single;
#DESCRIPTION:Heavy;
#CHARTSTYLE:;
#DIFFICULTY:Hard;
#METER:8;
#RADARVALUES:0.456795,0.445375,0.399695,0.066616,0.000000,336.000000,294.000000,42.000000,7.000000,0.000000,0.000000,0.000000,0.000000,0.000000,0.456795,0.445375,0.399695,0.066616,0.000000,336.000000,294.000000,42.000000,7.000000,0.000000,0.000000,0.000000,0.000000,0.000000;
#CREDIT:Heavy;
#NOTES:
0000
0000
0000
0000
0000
0000
0000
0001
,
0000
0000
0000
0000
0000
0000
0000
0001
,
0000
0000
0000
0000
0000
0000
0000
1000
,
0000
0000
0000
0000
0000
0000
2000
0000
,
1000
0000
0001
0000
0001
0000
3200
0000
,
0001
0000
0100
0000
0001
0000
0200
0000
,
1000
0000
0010
0000
1000
0000
0200
0000
,
1000
0000
0001
0000
0010
0000
0300
0001
,
0001
0000
0010
0000
1100
0000
0001
0010
,
1000
0001
1000
0000
0101
0000
0100
1000
,
0001
1000
0001
0000
1010
0000
0010
0001
,
0001
1000
0001
0000
1100
0000
0100
0001
,
0001
0000
0010
0000
1100
0000
0001
0010
,
1000
0001
1000
0000
0101
0000
0100
1000
,
1000
0001
1000
0000
0101
0000
0100
1000
,
0001
1000
0001
0000
1100
0000
0100
0001
,
0001
0000
0010
0000
1100
0000
0001
0010
,
1000
0001
1000
0000
0101
0000
0100
1000
,
0001
1000
0001
0000
1100
0000
0100
0001
,
1000
0001
1000
0000
0101
0000
0100
1000
,
0001
0000
0010
0000
1100
0000
0001
0010
,
1000
0001
1000
0000
0101
0000
0100
1000
,
0001
1000
0001
0000
1010
0000
0010
0001
,
0001
0010
0100
0000
1010
0000
1000
0001
,
0001
0000
0010
0000
1100
0000
0001
0010
,
1000
0001
1000
0000
0101
0000
0100
1000
,
1000
0001
1000
0000
0101
0000
0100
1000
,
0001
1000
0001
0000
1100
0000
0100
0001
,
0001
0000
0010
0000
1100
0000
0001
0010
,
1000
0001
1000
0000
0101
0000
0100
1000
,
0001
1000
0001
0000
1010
0000
0010
0001
,
1000
0001
1000
0000
0011
0000
0010
1000
,
0001
0000
0010
0000
1100
0000
0001
0010
,
1000
0001
1000
0000
0101
0000
0100
1000
,
0001
1000
0001
0000
1100
0000
0100
0001
,
0001
1000
0001
0000
1100
0000
0100
0001
,
0001
0000
0010
0000
1100
0000
0001
0010
,
1000
0001
1000
0000
0101
0000
0100
1000
,
0001
1000
0001
0000
1100
0000
0100
0001
,
1000
0001
1000
0000
0011
0000
0200
0000
,
1000
0000
0001
0000
0001
0000
2300
0000
,
0001
0000
0100
0000
0001
0000
3020
0000
,
1000
0000
0100
0000
1000
0000
2030
0000
,
0001
0000
0010
0000
0001
0000
3100
0010
,
1000
0000
0001
0001
0001
1000
0020
0000
,
0001
0000
0100
0000
0001
0000
0032
0000
,
1000
0000
0010
0000
1000
0000
2003
0000
,
1000
0000
0001
0000
0010
0000
3000
0001
,
0001
0000
0010
0000
1100
0000
0001
0010
,
1000
0001
1000
0000
0101
0000
0100
1000
,
0001
1000
0001
0000
1100
0000
0100
0001
,
1000
0001
1000
0000
0101
0000
0100
1000
,
0001
0000
0010
0000
1100
0000
0001
0010
,
1000
0001
1000
0000
0101
0000
0100
1000
,
0001
1000
0001
0000
1100
0000
0100
0001
,
1000
0001
1000
0000
0011
0000
0010
1000
,
0001
0000
0010
0000
1100
0000
0001
0010
,
1000
0100
0010
0000
1100
0000
0010
0100
,
0001
0000
0010
0000
0100
0000
0000
0000
,
;
