#TITLE:onlymp3.to - Elephant Man Willie Bounce Lyrics -TuTnfyBR8Sk-192k-1696868998;
#SUBTITLE:;
#ARTIST:Dancing Monkeys Project;
#TITLETRANSLIT:;
#SUBTITLETRANSLIT:;
#ARTISTTRANSLIT:;
#GENRE:;
#CREDIT:Gorilla v1.1.3 (Dancing Monkeys v1.06);
#BANNER:;
#BACKGROUND:;
#LYRICSPATH:;
#CDTITLE:;
#MUSIC:onlymp3.to - Elephant Man Willie Bounce Lyrics -TuTnfyBR8Sk-192k-1696868998.mp3;
#OFFSET:-0.476479;
#SAMPLESTART:51.980644;
#SAMPLELENGTH:12.000000;
#SELECTABLE:YES;
#BPMS:0.000000=116.495003
;
#STOPS:
;
#BGCHANGES:;
#KEYSOUNDS:;
#ATTACKS:;

//---------------dance-single - Basic----------------
#NOTES:
     dance-single:
     Basic:
     Easy:
     4:
     0.279995,0.347870,0.057086,0.000000,0.000000,206.000000,200.000000,6.000000,0.000000,0.000000,0.000000,0.279995,0.347870,0.057086,0.000000,0.000000,206.000000,200.000000,6.000000,0.000000,0.000000,0.000000:
0000
0000
0000
0000
0000
0000
0001
0000
,
1000
0000
0000
0000
0010
0000
1000
0000
,
1010
0000
0000
0000
1000
0000
0001
0000
,
1000
0000
0000
0000
0010
0000
1000
0000
,
0001
0000
0000
0000
0010
0000
0001
0000
,
1000
0000
0000
0000
0010
0000
1000
0000
,
0001
0000
0000
0000
0010
0000
0001
0000
,
1000
0000
0100
0000
0001
0000
0100
0000
,
0011
0000
0010
0000
1000
0000
0010
0000
,
1000
0000
0001
0000
0100
0000
0010
0000
,
0001
0000
1000
0000
0100
0000
0010
0000
,
1000
0000
0001
0000
0010
0000
0100
0000
,
1000
0000
0001
0000
0100
0000
0010
0000
,
0001
0000
1000
0000
0100
0000
0010
0000
,
1000
0000
0001
0000
0010
0000
0100
0000
,
0011
0000
0001
0010
0001
0010
0100
0000
,
0011
0000
0001
0010
0001
0010
0100
0000
,
1000
0000
0100
0000
0010
0000
0001
0000
,
0001
0000
0100
0000
0010
0000
1000
0000
,
0001
0000
0010
0000
0100
0000
1000
0000
,
1000
0000
0100
0000
0010
0000
0001
0000
,
0001
0000
0010
0000
0100
0000
1000
0000
,
1000
0000
0010
0000
0100
0000
0001
0000
,
0001
0000
0100
0000
0010
0000
1000
0000
,
0001
0000
0010
0000
0100
0000
1000
0000
,
1000
0000
0010
0000
1000
0000
0001
0000
,
1000
0100
1000
0001
0100
0000
0010
0000
,
1000
0000
0010
0000
1000
0000
0001
0000
,
1000
0100
1000
0001
0100
0000
0010
0000
,
1000
0000
0010
0000
1000
0000
0001
0000
,
1000
0100
1000
0001
0100
0000
0010
0000
,
1000
0000
0010
0000
1000
0000
0001
0000
,
1000
0100
1000
0001
0100
0000
0010
0000
,
0001
0000
0000
0000
0010
0000
0001
0000
,
1000
0000
0010
0000
1000
0000
0010
0000
,
0001
0000
0000
0000
0010
0000
0001
0000
,
1000
0000
0010
0000
1000
0000
0010
0000
,
0001
0000
0000
0000
0010
0000
0001
0000
,
1000
0000
0100
0000
0010
0000
0001
0000
,
1000
0000
0001
0000
0100
0000
0010
0000
,
0001
0000
1000
0000
0010
0000
0100
0000
,
0001
0000
1000
0000
0100
0000
0010
0000
,
0001
0000
1000
0000
0100
0000
0010
0000
,
1000
0000
0001
0000
0010
0000
0100
0000
,
1000
0000
0001
0000
0010
0000
0100
0000
,
0011
0000
0001
0010
0001
0010
0100
0000
,
0101
0000
0001
0100
0001
0100
0010
0000
,
1000
0000
0100
0000
0010
0000
0001
0000
,
1000
0000
0001
0000
0100
0000
0010
0000
,
;
