#TITLE:What Hurts the Most;
#SUBTITLE:;
#ARTIST:Cascada;
#TITLETRANSLIT:;
#SUBTITLETRANSLIT:;
#ARTISTTRANSLIT:;
#GENRE:;
#CREDIT:;
#BANNER:ab67616d00001e02ae471f48e67db52a96063ba1.png;
#BACKGROUND:hqdefault.png;
#LYRICSPATH:;
#CDTITLE:;
#MUSIC:what hurts the most.mp3;
#OFFSET:0.200000;
#SAMPLESTART:99.959999;
#SAMPLELENGTH:12.000000;
#SELECTABLE:YES;
#BPMS:0.000000=71.000000
,16.000000=142.000000
;
#STOPS:
;
#BGCHANGES:;
#KEYSOUNDS:;
#ATTACKS:;

//---------------dance-single - ----------------
#NOTES:
     dance-single:
     :
     Easy:
     3:
     0.316329,0.307800,0.032326,0.016163,0.000000,274.000000,270.000000,4.000000,2.000000,0.000000,0.000000,0.316329,0.307800,0.032326,0.016163,0.000000,274.000000,270.000000,4.000000,2.000000,0.000000,0.000000:
0000
1000
0100
0010
,
0100
0010
1000
0001
,
0100
0010
0001
1000
,
0010
0001
0010
1000
,
0001
0100
0010
1000
,
0010
0001
0100
0010
,
1000
0100
0001
0010
,
1000
0010
0100
0001
,
1000
0100
0010
0001
,
0100
0010
0001
0100
,
2000
0000
0000
0000
,
3001
0100
0010
1000
,
1001
0010
1000
0001
,
1000
0100
0010
0001
,
1000
0100
0010
0001
,
0010
0100
1000
0010
,
0100
1000
0001
1000
,
0010
0001
0100
0001
,
1000
0100
0001
1000
,
0010
0001
0100
0010
,
1001
0100
0001
1000
,
0010
0001
0100
0010
,
1000
0100
0001
0100
,
0010
0100
1000
0010
,
0001
0010
0100
1000
,
0001
0010
0100
1000
,
0010
0001
0100
0010
,
1000
0010
0100
0010
,
0001
0010
1000
0100
,
0001
0010
0100
1000
,
0010
1000
0001
0010
,
1000
0001
0010
1000
,
0100
0001
1000
0001
,
0010
1000
0100
0010
,
0001
1000
0010
0100
,
1000
0010
0001
0100
,
1000
0010
1000
0001
,
1000
0100
0001
0010
,
1000
0001
0010
0100
,
0001
1000
0001
1000
,
0010
1001
0010
0100
,
0010
0001
0010
0100
,
0010
1001
0100
0010
,
0100
1000
0001
0010
,
1000
0100
0001
0010
,
1000
0001
0010
0100
,
1000
0010
0001
0010
,
1000
0001
0100
0010
,
0001
0010
1000
0100
,
0001
0010
0100
0001
,
1000
0001
0010
0100
,
1000
0100
0010
0001
,
0010
0100
1000
0010
,
0100
1000
0010
0001
,
0010
1000
0100
0001
,
0010
0100
1000
0010
,
0001
0100
0010
1000
,
0100
0010
0001
1000
,
0001
0010
1000
0010
,
0100
0001
0010
0100
,
0001
0100
0010
1000
,
0001
0010
0100
1000
,
0010
0001
0100
0010
,
1000
0010
1000
0001
,
0100
0010
1000
0010
,
1000
0010
1000
0010
,
0001
1000
0100
0001
,
0010
0100
0001
0010
,
1000
0002
0000
0000
,
0000
0003
0000
0000
;

//---------------dance-single - ----------------
#NOTES:
     dance-single:
     :
     Beginner:
     3:
     0.157010,0.139909,0.000000,0.016163,0.000000,136.000000,136.000000,0.000000,2.000000,0.000000,0.000000,0.157010,0.139909,0.000000,0.016163,0.000000,136.000000,136.000000,0.000000,2.000000,0.000000,0.000000:
// measure 0
0000
1000
0000
0010
,  // measure 1
0000
0100
0000
0001
,  // measure 2
0000
0010
0000
1000
,  // measure 3
0000
0001
0000
1000
,  // measure 4
0000
0100
0000
1000
,  // measure 5
0000
0001
0000
0010
,  // measure 6
0000
0100
0000
0001
,  // measure 7
0000
0010
0000
0001
,  // measure 8
0000
0100
0000
0001
,  // measure 9
0000
0010
0010
0000
,  // measure 10
2000
0000
0000
0000
,  // measure 11
3000
0000
0010
0000
,  // measure 12
1000
0000
0010
0000
,  // measure 13
1000
0000
0010
0000
,  // measure 14
1000
0000
0001
0000
,  // measure 15
0010
0000
1000
0000
,  // measure 16
0100
0000
0001
0000
,  // measure 17
0010
0000
0100
0000
,  // measure 18
1000
0000
0001
0000
,  // measure 19
0010
0000
0100
0000
,  // measure 20
0010
0000
0001
0000
,  // measure 21
0010
0000
0100
0000
,  // measure 22
1000
0000
0001
0000
,  // measure 23
0010
0000
1000
0000
,  // measure 24
0001
0000
0100
0000
,  // measure 25
0001
0000
0100
0000
,  // measure 26
0010
0000
0100
0000
,  // measure 27
1000
0000
0100
0000
,  // measure 28
0001
0000
1000
0000
,  // measure 29
0001
0000
0100
0000
,  // measure 30
0010
0000
0001
0000
,  // measure 31
1000
0000
0010
0000
,  // measure 32
0100
0000
1000
0000
,  // measure 33
0010
0000
0100
0000
,  // measure 34
0001
0000
0010
0000
,  // measure 35
1000
0000
0001
0000
,  // measure 36
1000
0000
0010
0000
,  // measure 37
1000
0000
0001
0000
,  // measure 38
1000
0000
0010
0000
,  // measure 39
1000
0000
0001
0000
,  // measure 40
0100
0000
1000
0000
,  // measure 41
0001
0000
0100
0000
,  // measure 42
0010
0000
1000
0000
,  // measure 43
0100
0000
0001
0000
,  // measure 44
1000
0000
0001
0000
,  // measure 45
1000
0000
0010
0000
,  // measure 46
1000
0000
0001
0000
,  // measure 47
1000
0000
0100
0000
,  // measure 48
0001
0000
1000
0000
,  // measure 49
0001
0000
0100
0000
,  // measure 50
1000
0000
0010
0000
,  // measure 51
1000
0000
0010
0000
,  // measure 52
0010
0000
1000
0000
,  // measure 53
0100
0000
0010
0000
,  // measure 54
0001
0000
0100
0000
,  // measure 55
0010
0000
1000
0000
,  // measure 56
0001
0000
0010
0000
,  // measure 57
0100
0000
1000
0000
,  // measure 58
0001
0000
1000
0000
,  // measure 59
0100
0000
0010
0000
,  // measure 60
0001
0000
0010
0000
,  // measure 61
0001
0000
0100
0000
,  // measure 62
0010
0000
0100
0000
,  // measure 63
0001
0000
1000
0000
,  // measure 64
0100
0000
1000
0000
,  // measure 65
0010
0000
1000
0000
,  // measure 66
0001
0000
0100
0000
,  // measure 67
0010
0000
0001
0000
,  // measure 68
0001
0002
0000
0000
,  // measure 69
0000
0003
0000
0000
;
