#TITLE:(MIXED MASHUP!) Justin Bieber ft. Ludacris v. Justin Bieber - Baby, What Do You Mean_;
#SUBTITLE:;
#ARTIST:Dancing Monkeys Project;
#TITLETRANSLIT:;
#SUBTITLETRANSLIT:;
#ARTISTTRANSLIT:;
#GENRE:;
#CREDIT:Gorilla v1.1.3 (Dancing Monkeys v1.06);
#BANNER:maxresdefault.png;
#BACKGROUND:ab67616d00001e023781f893aec9251308dddfe5ab67616d00001e024cfeb6e4671c36e3b57.png;
#LYRICSPATH:;
#CDTITLE:;
#MUSIC:(MIXED MASHUP!) Justin Bieber ft. Ludacris v. Justin Bieber - Baby, What Do You Mean_.mp3;
#OFFSET:-0.093673;
#SAMPLESTART:46.245605;
#SAMPLELENGTH:12.000000;
#SELECTABLE:YES;
#BPMS:0.000000=130.005005
;
#STOPS:
;
#BGCHANGES:;
#KEYSOUNDS:;
#ATTACKS:;

//---------------dance-single - Basic----------------
#NOTES:
     dance-single:
     Basic:
     Easy:
     2:
     0.185266,0.182193,0.000000,0.075914,0.000000,205.000000,205.000000,0.000000,12.000000,0.000000,0.000000,0.185266,0.182193,0.000000,0.075914,0.000000,205.000000,205.000000,0.000000,12.000000,0.000000,0.000000:
// measure 0
1000
0000
0000
0001
,  // measure 1
0001
0000
0000
0000
,  // measure 2
1000
0000
0000
0001
,  // measure 3
0001
0000
0000
0000
,  // measure 4
1000
0000
0000
0001
,  // measure 5
0001
0000
0000
0000
,  // measure 6
1000
0000
0000
0001
,  // measure 7
0001
0001
0000
0000
,  // measure 8
1000
0010
0010
1000
,  // measure 9
1000
1000
0010
1000
,  // measure 10
0001
0001
0100
0001
,  // measure 11
0100
0001
1000
0010
,  // measure 12
1000
1000
0010
1000
,  // measure 13
0001
0001
0010
0001
,  // measure 14
0010
1000
1000
0100
,  // measure 15
0001
1000
0010
0100
,  // measure 16
1000
1000
0010
1000
,  // measure 17
0001
0001
0010
0001
,  // measure 18
0010
1000
1000
0100
,  // measure 19
1000
1000
0010
1000
,  // measure 20
0001
0001
0100
0001
,  // measure 21
1000
1000
0010
1000
,  // measure 22
0001
1000
1000
0100
,  // measure 23
1000
0100
1000
0001
,  // measure 24
0001
0100
0010
0010
,  // measure 25
1000
0020
0000
0030
,  // measure 26
1000
0100
0010
0001
,  // measure 27
0001
0020
0000
0030
,  // measure 28
0001
0010
0100
0100
,  // measure 29
1000
0020
0000
0030
,  // measure 30
0001
0100
0010
0010
,  // measure 31
0001
0100
0010
0010
,  // measure 32
1000
0010
0100
0100
,  // measure 33
0001
0100
0010
1000
,  // measure 34
1000
0100
0010
0010
,  // measure 35
0001
0010
0100
0100
,  // measure 36
0001
0010
0100
0100
,  // measure 37
0001
1000
0001
0001
,  // measure 38
0001
0100
0010
0010
,  // measure 39
0001
0100
0010
0010
,  // measure 40
2000
0000
0000
3000
,  // measure 41
0001
2000
0000
3000
,  // measure 42
0200
0000
0000
0300
,  // measure 43
0020
0000
0030
0000
,  // measure 44
2000
0000
3000
0100
,  // measure 45
0200
0000
0300
0001
,  // measure 46
2000
0000
3000
0001
,  // measure 47
0001
0001
0000
0000
,  // measure 48
1000
0100
0010
0001
,  // measure 49
0001
0010
0100
1000
,  // measure 50
1000
0100
0100
0001
,  // measure 51
0001
0010
0001
0100
,  // measure 52
1000
0200
0000
0000
,  // measure 53
0000
0000
0000
0300
,  // measure 54
0001
0010
0100
1000
,  // measure 55
0001
0010
0001
0100
,  // measure 56
1000
1000
0001
0001
,  // measure 57
1000
0200
0000
0300
,  // measure 58
0100
0100
0100
1000
,  // measure 59
1000
0010
0100
0001
,  // measure 60
0001
1000
0001
1000
,  // measure 61
0001
0010
0100
1000
,  // measure 62
0001
0010
0100
1000
,  // measure 63
1000
0001
0001
0010
,  // measure 64
0100
0000
0000
0000
;

//---------------dance-single - Standard----------------
#NOTES:
     dance-single:
     Standard:
     Medium:
     3:
     0.242201,0.306186,0.031631,0.000000,0.000000,268.000000,263.000000,5.000000,0.000000,0.000000,0.000000,0.242201,0.306186,0.031631,0.000000,0.000000,268.000000,263.000000,5.000000,0.000000,0.000000,0.000000:
1000
0000
0000
0000
0000
0000
0000
0000
,
1000
0000
0000
0000
0000
0000
0000
0000
,
0001
0000
0000
0000
0000
0000
0000
0000
,
0001
0000
0000
0000
0000
0000
0000
0000
,
0001
0000
0000
0000
0000
0000
0000
0000
,
0001
0000
0000
0000
0000
0000
0000
0000
,
1000
0000
0000
0000
0000
0000
0000
0000
,
1000
0000
0000
0000
0000
0000
0000
0000
,
1000
0010
0010
1000
0001
0000
0100
0100
,
1000
0100
0100
1000
0001
0000
0010
0010
,
0001
0100
0100
0001
1000
0000
0010
0000
,
0011
0000
0100
0010
0001
1000
0001
0100
,
1000
0010
0010
1000
0001
0000
0100
0100
,
0001
0100
0100
0010
0100
0000
0001
0000
,
1001
0000
1000
0100
0100
0010
0001
0000
,
1010
0000
0100
0001
0100
0000
1000
0010
,
1000
0010
0010
1000
0001
0000
0100
0100
,
0001
0100
0100
0010
0100
0000
0001
0000
,
1001
0000
1000
0100
0100
0010
0001
0000
,
1000
0010
0010
1000
0001
0000
0100
0100
,
1000
0100
0100
1000
0001
0000
0010
0010
,
0001
0010
0010
0001
1000
0000
0100
0000
,
1001
0000
1000
0100
0100
0010
0001
0000
,
1000
0000
0100
0000
0010
0000
0001
1000
,
1000
0000
0001
0000
0100
0000
0000
0000
,
1000
0000
0001
0000
0100
0000
0000
0000
,
0001
0000
1000
0000
0010
0000
0000
0000
,
1000
0000
0001
0000
0100
0000
0000
0000
,
1000
0000
0001
0000
0100
0000
0000
0000
,
0001
0000
1000
0000
0010
0000
0000
0000
,
1000
0000
0001
0000
0010
0000
0000
0000
,
0001
0000
1000
0000
0100
0000
0000
0000
,
1000
0000
0001
0000
0100
0000
0000
0000
,
1000
0000
0001
0000
0100
0000
0000
0000
,
0001
0000
1000
0000
0010
0000
0000
0000
,
1000
0000
0001
0000
0010
0000
0000
0000
,
1000
0000
0001
0000
0010
0000
0000
0000
,
0001
0000
1000
0000
0001
0000
0000
0000
,
1000
0000
0001
0000
0100
0000
0000
0000
,
1000
0000
0001
0000
0010
0000
0000
0000
,
1000
0000
0100
0000
0010
0000
0001
1000
,
0001
0000
0010
0000
0010
0000
0100
0000
,
1000
0000
0100
0000
0010
0000
0001
1000
,
0001
0000
0100
0000
0010
0000
1000
0001
,
1000
0000
0100
0000
1000
0000
0010
0000
,
0001
0000
0010
0000
0010
0000
0100
0000
,
1000
0000
0100
0000
0010
0000
0001
1000
,
0001
0010
0001
0000
0000
0000
0000
0000
,
0001
0000
0100
0001
1000
0000
0100
0100
,
1000
0000
0010
1000
0001
0000
0010
0010
,
1000
0000
0010
1000
0001
0000
0010
0010
,
0001
1000
0010
0000
0100
0000
0001
0001
,
0001
0000
0100
0001
1000
0000
0100
0100
,
0001
0000
0100
0001
1000
0000
0100
0100
,
0001
0000
0100
0001
1000
0000
0100
0100
,
0001
1000
0010
0000
0100
0000
0001
0001
,
0001
0000
0000
0000
0000
0000
0000
0000
,
0001
0000
0100
0001
1000
0000
0100
0100
,
1000
0000
0010
1000
0001
0000
0010
0010
,
1000
0000
0100
1000
0001
0000
0100
0100
,
0001
0000
1000
0000
0001
0000
0000
0000
,
;

//---------------dance-single - Heavy----------------
#NOTES:
     dance-single:
     Heavy:
     Hard:
     4:
     0.273832,0.307451,0.082240,0.000000,0.000000,303.000000,290.000000,13.000000,0.000000,0.000000,0.000000,0.273832,0.307451,0.082240,0.000000,0.000000,303.000000,290.000000,13.000000,0.000000,0.000000,0.000000:
0001
0000
0000
0000
0000
0000
0000
0000
,
1000
0000
0000
0000
0000
0000
0000
0000
,
1000
0000
0000
0000
0000
0000
0000
0000
,
1000
0000
0000
0000
0000
0000
0000
0000
,
0001
0000
0000
0000
0000
0000
0000
0000
,
0001
0000
0000
0000
0000
0000
0000
0000
,
1000
0000
0000
0000
0000
0000
0000
0000
,
0001
0000
0000
0000
0000
0000
0000
0000
,
0011
0000
0001
0010
0100
0000
1000
0000
,
0011
0000
0001
0010
0100
0000
1000
0000
,
0101
0000
0001
0100
0010
0000
1000
0000
,
0011
0000
0100
0010
1000
0001
0010
0000
,
0011
0000
0001
0010
0100
0000
1000
1000
,
0001
0100
0100
0010
0100
0001
0010
0000
,
0011
0000
1000
0100
0100
1000
0001
0000
,
0011
0000
0100
0010
0100
0001
1000
0000
,
0011
0000
0001
0010
0100
0000
1000
1000
,
0001
0100
0100
0010
0100
0001
0010
0000
,
0011
0000
1000
0100
0100
1000
0001
0000
,
0011
0000
0001
0010
0100
0000
1000
0000
,
0101
0000
0001
0100
0010
0000
1000
0000
,
1010
0000
1000
0010
0100
0000
0001
0000
,
0011
0000
1000
0100
0100
1000
0001
0100
,
0001
0000
1000
0000
0001
0000
1000
0100
,
1000
0001
1000
0100
0000
1000
0000
0000
,
1000
0001
1000
0010
0000
1000
0000
0000
,
1000
0001
1000
0010
0000
1000
0000
0000
,
1000
0001
1000
0010
0000
1000
0000
0000
,
1000
0001
1000
0100
0000
1000
0000
0000
,
0001
1000
0001
0100
0000
0001
0000
0000
,
0001
1000
0001
0010
0000
0001
0000
0000
,
0001
1000
0001
0100
0000
0001
0000
0000
,
0001
1000
0001
0010
0000
0001
0000
0000
,
1000
0001
1000
0010
0000
1000
0000
0000
,
0001
1000
0001
0010
0000
0001
0000
0000
,
1000
0001
1000
0100
0000
1000
0000
0000
,
1000
0001
1000
0100
0000
1000
0000
0000
,
1000
0000
0001
0000
0010
0000
0010
0000
,
1000
0001
1000
0100
0000
1000
0000
0000
,
1000
0001
1000
0100
0000
1000
0000
0000
,
0001
0000
1000
0000
0001
0000
1000
0100
,
0001
0000
0100
0001
0001
0000
0100
0000
,
0001
0000
1000
0000
0001
0000
1000
0100
,
1000
0000
0001
0000
1000
0000
0001
0100
,
1000
0000
0010
0000
1000
0010
0000
0000
,
0001
0000
0100
0001
0001
0000
0100
0000
,
0001
0000
1000
0000
0001
0000
1000
0100
,
1000
0100
0010
0000
0000
0000
0000
0000
,
0001
0000
1000
0010
1000
0000
0001
0001
,
0001
0000
1000
0010
1000
0000
0001
0001
,
0001
0000
1000
0100
1000
0000
0001
0001
,
1000
0001
0100
0000
0001
0100
0010
0010
,
0001
0000
1000
0010
1000
0000
0001
0001
,
0001
0000
1000
0100
1000
0000
0001
0001
,
1000
0000
0001
0100
0001
0000
1000
1000
,
1000
0001
0100
0000
0001
0100
0010
0010
,
0001
0000
0100
0000
0000
0000
0000
0000
,
0001
0000
1000
0010
1000
0000
0001
0001
,
1000
0000
0001
0100
0001
0000
1000
1000
,
1000
0000
0001
0100
0001
0000
1000
1000
,
1000
0000
0001
0000
0010
0000
0010
0000
,
;
