#VERSION:0.83;
#TITLE:We Are Number One;
#SUBTITLE:(But It's Perfect);
#ARTIST:Team Four Star;
#TITLETRANSLIT:;
#SUBTITLETRANSLIT:;
#ARTISTTRANSLIT:;
#GENRE:;
#ORIGIN:;
#CREDIT:;
#BANNER:We Are Number One (But It's Perfect).png;
#BACKGROUND:We Are Number One (But It's Perfect)-bg.png;
#PREVIEWVID:;
#JACKET:;
#CDIMAGE:;
#DISCIMAGE:;
#LYRICSPATH:;
#CDTITLE:;
#MUSIC:We Are Number One (But It's Perfect).ogg;
#OFFSET:-0.200000;
#SAMPLESTART:42.965000;
#SAMPLELENGTH:12.805000;
#SELECTABLE:YES;
#BPMS:0.000=164.000;
#STOPS:;
#DELAYS:;
#WARPS:;
#TIMESIGNATURES:0.000=4=4;
#TICKCOUNTS:0.000=4;
#COMBOS:0.000=1;
#SPEEDS:0.000=1.000=0.000=0;
#SCROLLS:0.000=1.000;
#FAKES:;
#LABELS:0.000=Song Start;
#BGCHANGES:;
#KEYSOUNDS:;
#ATTACKS:
;

//---------------dance-single - ----------------
#NOTEDATA:;
#CHARTNAME:;
#STEPSTYPE:dance-single;
#DESCRIPTION:;
#CHARTSTYLE:;
#DIFFICULTY:Hard;
#METER:14;
#RADARVALUES:0.684416,0.919405,0.262687,0.025018,0.412794,383.000000,362.000000,21.000000,2.000000,0.000000,0.000000,0.000000,0.000000,0.000000,0.684416,0.919405,0.262687,0.025018,0.412794,383.000000,362.000000,21.000000,2.000000,0.000000,0.000000,0.000000,0.000000,0.000000;
#CREDIT:;
#NOTES:
0000
0000
0000
0000
,
0000
0000
0000
0000
,
0000
0000
0000
0000
,
0000
0000
0000
0000
,
1000
0000
0001
0000
0000
0000
0001
0000
0100
0010
0100
0010
0100
0000
0001
0000
,
1000
0100
0010
0001
,
0011
1010
1100
0101
,
0001
0100
1000
0100
0001
0100
0010
1000
,
0001
0000
1000
0000
0000
0000
1000
0000
0100
0010
0100
0010
0100
0000
1000
0000
,
0001
0000
0100
0000
0010
0100
0001
1000
,
0100
0001
0010
1000
,
0001
1000
0001
1000
0001
0000
1000
0100
1000
0100
1000
0000
0100
0010
0100
0010
,
0100
0000
0000
0000
0010
0100
0010
0100
1000
0100
1000
0100
1000
0001
1000
0001
,
1000
0000
0000
0000
1000
0000
0000
0000
1000
0000
0001
1000
0001
0000
0000
0000
,
0011
0000
0100
0010
0011
0000
0100
0010
,
0011
0000
0100
0010
0000
0010
0001
1000
,
0020
1000
0000
0100
0000
0031
0010
1000
,
0100
0010
0001
1000
0010
0100
0010
1000
,
1010
0000
0100
0010
1010
0000
0100
0010
,
1010
0000
0100
0010
0000
0010
1000
0001
,
0020
0001
0000
0100
0000
1030
0010
0000
,
0001
1000
0001
0010
0001
1000
0100
1000
0001
0100
0010
0100
0001
1000
0100
0010
,
0001
0000
0000
0000
0001
0010
0001
0010
0100
0010
0100
0010
0100
1000
0100
1000
,
0100
0000
0000
0000
0000
0000
0000
0000
0100
1000
0100
1000
0001
0000
0000
0000
,
1000
0000
0010
0000
0001
0000
1000
0000
0100
0000
0001
0000
1000
0000
0001
1000
,
0001
0000
0010
0000
1000
0000
0001
0000
0100
0000
1000
0000
0001
0000
1000
0001
,
1000
0010
0100
0010
0001
0010
0100
0010
,
1000
0001
1000
0001
0010
0100
0010
0001
1000
0001
1000
0001
0100
0010
0100
0001
,
1000
1000
1000
1000
,
1000
1100
0110
0011
,
0001
0000
1000
0000
0000
0000
1000
0000
0010
0100
0010
0100
0010
0000
1000
0000
,
0001
0010
0100
1000
,
1100
0101
0011
1010
,
1000
0010
0001
0010
1000
0010
0100
0001
,
1000
0000
0001
0000
0000
0000
0001
0000
0010
0100
0010
0100
0010
0000
0001
0000
,
1000
0000
0010
0000
0100
0010
1000
0001
,
0010
1000
0100
0001
,
1000
0001
1000
0001
1000
0000
0001
0010
0001
0010
0001
0000
0010
0100
0010
0100
,
0010
0000
0001
0000
1000
0000
0010
0000
0100
0010
1000
0100
0010
0000
0100
0000
,
1000
0001
0100
0010
0100
0001
1000
0100
,
0010
1000
0010
0100
0010
0001
0010
0100
,
1000
0001
0100
0100
1000
0100
0001
0010
,
0100
0000
1000
0000
0001
0000
0100
0000
0010
0100
0001
0010
0100
0000
0010
0000
,
0001
1000
0010
0100
0001
0010
1000
0100
,
0001
0100
0001
1000
0001
0010
0001
1000
,
0001
1000
0001
1000
0001
0000
1000
0010
1000
0010
1000
0000
0010
0100
0010
0100
,
0010
0000
0100
0000
0001
0000
1000
0000
0100
0000
0010
0001
0011
0000
0000
0000
,
0100
0000
0010
0000
0001
0000
1000
0000
0010
0000
0100
0001
0101
0000
0000
0000
,
0100
0000
0001
0000
1000
0000
0100
0000
0010
0000
0001
0010
0011
0000
0000
0000
,
1010
0000
0000
0000
;

//---------------dance-single - ----------------
#NOTEDATA:;
#CHARTNAME:;
#STEPSTYPE:dance-single;
#DESCRIPTION:;
#CHARTSTYLE:;
#DIFFICULTY:Medium;
#METER:11;
#RADARVALUES:0.466404,0.520996,0.062545,0.225160,0.012509,261.000000,256.000000,5.000000,18.000000,0.000000,0.000000,0.000000,0.000000,0.000000,0.466404,0.520996,0.062545,0.225160,0.012509,261.000000,256.000000,5.000000,18.000000,0.000000,0.000000,0.000000,0.000000,0.000000;
#CREDIT:;
#NOTES:
0000
0000
0000
0000
,
0000
0000
0000
0000
,
0000
0000
0000
0000
,
0000
0000
0000
0000
,
0002
0000
0000
1003
0100
0001
0100
1000
,
0001
0100
0010
0100
,
0001
0010
0100
1000
,
0001
1000
0010
1000
0002
0000
0000
0000
,
2003
0000
0000
3001
0010
1000
0010
0001
,
1000
0000
0010
0000
0100
0010
1000
0001
,
0010
0100
0010
0001
,
1000
0010
0001
1000
0100
0001
0100
0010
,
1000
0000
1000
0010
0100
1000
0100
0001
,
1000
0000
0000
0000
0000
1000
1001
0000
,
1000
0000
1000
0010
0100
0000
0100
0010
,
1000
0000
0001
1000
0000
0001
1000
0100
,
0020
0001
0000
0100
0000
0031
0020
0000
,
0230
0000
0310
0002
0000
0000
0000
0000
,
1003
0000
1000
0100
0010
0000
0010
0100
,
1000
0000
0001
1000
0000
0001
1000
0010
,
0200
0001
0000
0010
0000
0301
0200
0000
,
1300
0100
0001
0100
0010
0001
0010
1000
,
0001
0000
0001
1000
0100
0010
1000
0010
,
0100
0000
0000
0000
0001
0100
1000
0000
,
0100
1000
0100
0010
0100
0010
0100
0010
,
0001
0010
0001
1000
0001
1000
0001
0100
,
0010
1000
0100
0010
0100
1000
0001
0100
,
0010
0001
0010
1000
0100
0001
1000
0010
,
0001
0001
0001
0001
,
0001
0002
0023
0230
,
2300
0000
0000
3001
0100
1000
0100
0001
,
1000
0100
0010
0100
,
1000
0010
0100
0001
,
1000
0001
0010
0001
2000
0000
0000
0000
,
3002
0000
0000
1003
0010
0001
0010
1000
,
0001
0000
0010
0000
0100
0010
0001
1000
,
0010
0100
0010
1000
,
0001
0010
1000
0001
0100
1000
0100
0010
,
0002
0000
0000
0000
0000
0000
0013
0000
0001
0010
0001
0000
0010
0000
0001
0000
,
1000
0001
0100
0010
,
0100
0001
1000
0100
,
0001
0100
1000
0001
2000
0000
0000
0000
,
3002
0000
0000
0000
0000
0000
0103
0000
0001
0100
0001
0000
0100
0000
0001
0000
,
1000
0000
0100
0000
0001
0100
1000
0001
,
0100
0010
0100
0001
,
1000
0100
0010
1000
0010
0001
1000
0010
,
0100
0010
0100
0010
0100
0000
1010
0000
,
0010
0100
0010
0100
0010
0000
0101
0000
,
0100
0010
0100
0010
0100
0000
1010
0000
,
0101
0000
0000
0000
;

//---------------dance-single - ----------------
#NOTEDATA:;
#CHARTNAME:;
#STEPSTYPE:dance-single;
#DESCRIPTION:;
#CHARTSTYLE:;
#DIFFICULTY:Easy;
#METER:7;
#RADARVALUES:0.312723,0.367762,0.050036,0.350250,0.000000,175.000000,171.000000,4.000000,28.000000,0.000000,0.000000,0.000000,0.000000,0.000000,0.312723,0.367762,0.050036,0.350250,0.000000,175.000000,171.000000,4.000000,28.000000,0.000000,0.000000,0.000000,0.000000,0.000000;
#CREDIT:;
#NOTES:
// measure 0
1000
0000
0002
0000
,  // measure 1
0000
0003
0100
0100
,  // measure 2
0010
0010
0010
1000
,  // measure 3
0020
0000
0000
0030
,  // measure 4
2000
0000
0001
3001
,  // measure 5
1000
0100
0010
0001
,  // measure 6
1000
0001
0100
0010
,  // measure 7
0100
0100
0200
0000
,  // measure 8
0302
0000
1000
1003
,  // measure 9
0001
0010
1000
0010
,  // measure 10
0001
0100
0010
1000
,  // measure 11
0001
0010
1000
0100
,  // measure 12
0001
0100
1000
0010
,  // measure 13
0001
0001
0001
1000
,  // measure 14
0002
0103
2000
3100
,  // measure 15
0002
0103
0010
0100
,  // measure 16
0002
0000
0000
2003
,  // measure 17
3200
0301
0100
0100
,  // measure 18
2000
3010
0002
0013
,  // measure 19
2000
3010
0100
0010
,  // measure 20
2000
0000
0000
3002
,  // measure 21
1003
0100
0001
1000
,  // measure 22
0010
1000
0010
0001
,  // measure 23
0100
0000
1000
0100
,  // measure 24
0001
1000
0200
0301
,  // measure 25
1000
0010
0200
1300
,  // measure 26
0002
0000
0000
0000
,  // measure 27
1003
0010
0001
0100
,  // measure 28
1000
1000
1000
1000
,  // measure 29
1000
2000
3002
2003
,  // measure 30
3002
0000
1000
1003
,  // measure 31
0001
0100
0010
0100
,  // measure 32
0001
1000
0100
0010
,  // measure 33
0100
0100
0200
0000
,  // measure 34
2300
0000
0001
3001
,  // measure 35
1000
0010
0001
0010
,  // measure 36
1000
0100
0010
0001
,  // measure 37
1000
0010
0001
0100
,  // measure 38
2000
0000
3000
0100
,  // measure 39
1000
1000
0001
0001
,  // measure 40
1000
0010
0100
0010
,  // measure 41
0001
0010
2000
0000
,  // measure 42
3002
0000
0003
0010
,  // measure 43
0001
0001
0100
0010
,  // measure 44
1000
0100
0010
0100
,  // measure 45
0001
0010
1000
0100
,  // measure 46
0010
0010
0010
1001
,  // measure 47
0100
0100
0100
1001
,  // measure 48
0010
0010
0010
1001
,  // measure 49
1001
0000
0000
0000
;

//---------------dance-single - ----------------
#NOTEDATA:;
#CHARTNAME:;
#STEPSTYPE:dance-single;
#DESCRIPTION:;
#CHARTSTYLE:;
#DIFFICULTY:Beginner;
#METER:4;
#RADARVALUES:0.171551,0.245175,0.037527,0.037527,0.000000,96.000000,93.000000,3.000000,3.000000,0.000000,0.000000,0.000000,0.000000,0.000000,0.171551,0.245175,0.037527,0.037527,0.000000,96.000000,93.000000,3.000000,3.000000,0.000000,0.000000,0.000000,0.000000,0.000000;
#CREDIT:;
#NOTES:
0000
0000
0000
0000
,
0000
0000
0000
0000
,
0000
0000
0000
0000
,
0000
0000
0000
0000
,
1000
0000
0001
0000
,
1000
0000
0010
0000
,
0001
0000
0100
0000
,
1000
0000
0001
0000
,
0100
0000
0010
0000
,
0100
0000
1000
0000
,
0001
0000
0010
0000
,
1000
0000
0010
0000
,
0100
0100
0100
0100
,
0100
0000
0000
0100
,
0100
0000
0001
0000
,
1000
0000
0100
0000
,
0002
0000
0003
0000
,
0100
0000
0010
0000
,
0001
0000
1000
0000
,
0010
0000
0100
0000
,
2000
0000
0000
3000
,
0001
0000
0010
0000
,
1000
1000
1000
1000
,
1000
0000
0001
0001
,
0001
0000
0001
0000
,
0010
0000
0010
0000
,
0200
0000
0000
0000
,
0000
0000
0000
0000
,
1300
0000
1000
0000
,
1000
1000
1000
1000
,
1000
0000
0001
0000
,
1000
0000
0100
0000
,
0001
0000
0010
0000
,
1000
0000
0001
0000
,
0010
0000
0100
0000
,
0010
0000
1000
0000
,
0001
0000
0100
0000
,
1000
0000
0010
0000
,
0100
0000
0010
0010
,
0010
0000
0010
0000
,
1000
0000
0100
0000
,
0001
0000
0010
0000
,
1000
0000
0001
0001
,
0001
0000
0010
0000
,
1000
0000
0010
0000
,
0100
0000
1000
0000
,
0010
0000
0000
1001
,
0000
0000
0000
0110
,
0000
0000
0000
1001
,
1000
0000
0000
0000
;
