#VERSION:0.83;
#TITLE:Wander Over Yonder Full Theme Song;
#SUBTITLE:;
#ARTIST:Disney;
#TITLETRANSLIT:;
#SUBTITLETRANSLIT:;
#ARTISTTRANSLIT:;
#GENRE:;
#ORIGIN:;
#CREDIT:Gorilla v1.1.3 (Dancing Monkeys v1.06);
#BANNER:;
#BACKGROUND:;
#PREVIEWVID:;
#JACKET:;
#CDIMAGE:;
#DISCIMAGE:;
#LYRICSPATH:;
#CDTITLE:;
#MUSIC:Wander Over Yonder Full Theme Song (Fan-Made).mp3;
#OFFSET:-0.477460;
#SAMPLESTART:33.783581;
#SAMPLELENGTH:12.000000;
#SELECTABLE:YES;
#BPMS:0.000=180.147;
#STOPS:;
#DELAYS:;
#WARPS:;
#TIMESIGNATURES:0.000=4=4;
#TICKCOUNTS:0.000=4;
#COMBOS:0.000=1;
#SPEEDS:0.000=1.000=0.000=0;
#SCROLLS:0.000=1.000;
#FAKES:;
#LABELS:0.000=Song Start;
#BGCHANGES:;
#KEYSOUNDS:;
#ATTACKS:
;

//---------------dance-single - Basic----------------
#NOTEDATA:;
#CHARTNAME:Basic;
#STEPSTYPE:dance-single;
#DESCRIPTION:Basic;
#CHARTSTYLE:;
#DIFFICULTY:Easy;
#METER:3;
#RADARVALUES:0.238537,0.329529,0.000000,0.127354,0.000000,118.000000,118.000000,0.000000,9.000000,0.000000,0.000000,0.000000,0.000000,0.000000,0.238537,0.329529,0.000000,0.127354,0.000000,118.000000,118.000000,0.000000,9.000000,0.000000,0.000000,0.000000,0.000000,0.000000;
#CREDIT:Basic;
#NOTES:
// measure 0
0000
0000
0000
0001
,  // measure 1
0000
0000
0000
0001
,  // measure 2
1000
0000
0000
0010
,  // measure 3
1000
0000
0010
0000
,  // measure 4
1000
0000
0001
0000
,  // measure 5
1000
0000
0010
0000
,  // measure 6
1000
1000
1000
1000
,  // measure 7
0001
0001
0001
0001
,  // measure 8
1000
1000
1000
1000
,  // measure 9
0010
0010
0010
0000
,  // measure 10
0001
0000
0010
0000
,  // measure 11
1000
0000
0010
0000
,  // measure 12
1000
0000
0010
0000
,  // measure 13
1000
0000
0010
0000
,  // measure 14
1000
1000
1000
1000
,  // measure 15
0010
0010
0010
0010
,  // measure 16
0000
1000
0000
0010
,  // measure 17
0000
1000
0000
0000
,  // measure 18
0002
0000
0003
0000
,  // measure 19
2000
0000
3000
0000
,  // measure 20
0020
0000
0030
0000
,  // measure 21
2000
0000
3000
0000
,  // measure 22
0002
0000
0003
2000
,  // measure 23
0000
3000
0000
0010
,  // measure 24
0000
1000
0000
0010
,  // measure 25
0000
1000
0000
0010
,  // measure 26
0000
1000
0000
0010
,  // measure 27
0000
1000
0000
0000
,  // measure 28
0001
0001
0001
0001
,  // measure 29
0100
0100
0100
0100
,  // measure 30
0000
0100
0000
0010
,  // measure 31
0000
0001
0000
0002
,  // measure 32
0000
0000
0003
0000
,  // measure 33
2000
0000
0000
3000
,  // measure 34
0002
0000
0003
0000
,  // measure 35
1000
0000
0010
0000
,  // measure 36
1000
0000
0010
0000
,  // measure 37
1000
0000
0010
0000
,  // measure 38
1000
0000
0010
0000
,  // measure 39
1000
1000
1000
1000
,  // measure 40
0010
0010
0010
0010
,  // measure 41
1000
0000
0001
0000
,  // measure 42
1000
0000
0010
0000
,  // measure 43
0001
0001
0001
0000
,  // measure 44
1000
1000
1000
0000
,  // measure 45
0010
0010
0010
0000
,  // measure 46
1000
1000
1000
0000
,  // measure 47
0010
0010
0010
0000
,  // measure 48
0100
0100
0100
0000
,  // measure 49
1000
1000
1000
0000
,  // measure 50
0010
0010
0010
0000
,  // measure 51
0001
0000
0000
0001
;
