#TITLE:Booyaka 619 (Rey Mysterio);
#SUBTITLE:;
#ARTIST:WWE;
#TITLETRANSLIT:;
#SUBTITLETRANSLIT:;
#ARTISTTRANSLIT:;
#GENRE:;
#CREDIT:Gorilla v1.1.3 (Dancing Monkeys v1.06);
#BANNER:;
#BACKGROUND:;
#LYRICSPATH:;
#CDTITLE:;
#MUSIC:Booyaka 619 (Rey Mysterio).mp3;
#OFFSET:-0.764271;
#SAMPLESTART:32.003853;
#SAMPLELENGTH:12.000000;
#SELECTABLE:YES;
#BPMS:0.000000=165.000000
;
#STOPS:
;
#BGCHANGES:;
#KEYSOUNDS:;
#ATTACKS:;

//---------------dance-single - Basic----------------
#NOTES:
     dance-single:
     Basic:
     Easy:
     3:
     0.102539,0.109679,0.000000,0.006708,0.000000,107.000000,107.000000,0.000000,1.000000,0.000000,0.000000,0.102539,0.109679,0.000000,0.006708,0.000000,107.000000,107.000000,0.000000,1.000000,0.000000,0.000000:
// measure 0
0001
0000
1000
0000
,  // measure 1
0000
0000
1000
0000
,  // measure 2
0010
0000
0000
1000
,  // measure 3
0000
0010
0000
0001
,  // measure 4
0000
0010
0000
1000
,  // measure 5
0000
0100
0000
0000
,  // measure 6
1000
0000
0000
1000
,  // measure 7
0000
0010
0000
0001
,  // measure 8
0000
0100
0000
1000
,  // measure 9
0000
0010
0000
0001
,  // measure 10
0000
0100
0000
0001
,  // measure 11
0000
0001
0000
0100
,  // measure 12
0000
1000
0000
0002
,  // measure 13
0000
0003
0000
0010
,  // measure 14
0000
0100
0000
1000
,  // measure 15
0000
0010
0000
1000
,  // measure 16
0000
0001
0000
0100
,  // measure 17
0000
1000
0000
0010
,  // measure 18
0000
1000
0000
0010
,  // measure 19
0000
0001
0000
0100
,  // measure 20
0000
0000
0000
0010
,  // measure 21
0000
0001
0000
0010
,  // measure 22
0000
1000
0000
0010
,  // measure 23
0000
1000
0000
0001
,  // measure 24
0000
0100
0000
0010
,  // measure 25
0000
0100
0000
0001
,  // measure 26
0000
0010
0000
0100
,  // measure 27
0000
1000
0000
0010
,  // measure 28
0000
0010
0000
1000
,  // measure 29
0000
0010
0000
1000
,  // measure 30
0000
0001
0000
0010
,  // measure 31
0000
1000
0000
0010
,  // measure 32
0000
1000
0000
0010
,  // measure 33
0000
1000
0000
0010
,  // measure 34
0000
0100
0000
0001
,  // measure 35
0000
0100
0000
1000
,  // measure 36
0000
0100
0000
0100
,  // measure 37
0000
0001
0000
0010
,  // measure 38
0000
1000
0000
0010
,  // measure 39
0000
0100
0000
0000
,  // measure 40
0001
0100
0000
0000
,  // measure 41
0001
0000
0010
0000
,  // measure 42
1000
0000
1000
0000
,  // measure 43
0010
0010
0000
1000
,  // measure 44
0000
0100
0000
0100
,  // measure 45
0100
0000
1000
0000
,  // measure 46
1000
0000
0001
0001
,  // measure 47
0000
0010
0000
0000
,  // measure 48
1000
0000
0100
0000
,  // measure 49
0001
0000
0001
0001
,  // measure 50
0000
1000
0000
0010
,  // measure 51
0000
1000
1000
0000
,  // measure 52
0010
0000
1000
0000
,  // measure 53
1000
0000
0010
0000
,  // measure 54
0001
0000
0100
0000
;
