#VERSION:0.83;
#TITLE:Slow Chemical (Kane);
#SUBTITLE:;
#ARTIST:WWE;
#TITLETRANSLIT:;
#SUBTITLETRANSLIT:;
#ARTISTTRANSLIT:;
#GENRE:;
#ORIGIN:;
#CREDIT:Gorilla v1.1.3 (Dancing Monkeys v1.06);
#BANNER:;
#BACKGROUND:;
#PREVIEWVID:;
#JACKET:;
#CDIMAGE:;
#DISCIMAGE:;
#LYRICSPATH:;
#CDTITLE:;
#MUSIC:Kane - Theme Song - Lyrics.mp3;
#OFFSET:-0.188708;
#SAMPLESTART:36.799126;
#SAMPLELENGTH:12.000000;
#SELECTABLE:YES;
#BPMS:0.000=143.220;
#STOPS:;
#DELAYS:;
#WARPS:;
#TIMESIGNATURES:0.000=4=4;
#TICKCOUNTS:0.000=4;
#COMBOS:0.000=1;
#SPEEDS:0.000=1.000=0.000=0;
#SCROLLS:0.000=1.000;
#FAKES:;
#LABELS:0.000=Song Start;
#BGCHANGES:;
#KEYSOUNDS:;
#ATTACKS:
;

//---------------dance-single - Basic----------------
#NOTEDATA:;
#CHARTNAME:Basic;
#STEPSTYPE:dance-single;
#DESCRIPTION:Basic;
#CHARTSTYLE:;
#DIFFICULTY:Easy;
#METER:3;
#RADARVALUES:0.109187,0.133264,0.000000,0.065325,0.000000,117.000000,117.000000,0.000000,10.000000,0.000000,0.000000,0.000000,0.000000,0.000000,0.109187,0.133264,0.000000,0.065325,0.000000,117.000000,117.000000,0.000000,10.000000,0.000000,0.000000,0.000000,0.000000,0.000000;
#CREDIT:Basic;
#NOTES:
// measure 0
0000
1000
0000
0000
,  // measure 1
0001
0000
0010
0000
,  // measure 2
0001
0000
0010
0000
,  // measure 3
1000
0000
0001
0000
,  // measure 4
0010
0000
1000
0000
,  // measure 5
0010
0000
1000
0000
,  // measure 6
0010
0000
0100
0000
,  // measure 7
0010
0000
1000
0000
,  // measure 8
0010
0000
1000
0000
,  // measure 9
0010
0000
1000
0000
,  // measure 10
0010
0000
1000
0000
,  // measure 11
0010
0000
0100
0000
,  // measure 12
0010
0000
0100
0000
,  // measure 13
0010
0000
1000
0000
,  // measure 14
0010
0000
0100
0000
,  // measure 15
0010
0000
1000
0000
,  // measure 16
0010
0000
1000
0000
,  // measure 17
0010
0000
0100
0000
,  // measure 18
0010
0000
1000
0000
,  // measure 19
0010
0000
2000
0000
,  // measure 20
0000
0000
0000
0000
,  // measure 21
3000
0000
1000
0000
,  // measure 22
0010
0000
0001
0000
,  // measure 23
0010
0000
0200
0000
,  // measure 24
0000
0000
0300
0000
,  // measure 25
1000
0000
0010
0000
,  // measure 26
1000
0000
0010
0000
,  // measure 27
0002
0000
0000
0000
,  // measure 28
0000
0003
0000
0001
,  // measure 29
0000
1000
0000
0100
,  // measure 30
0000
1000
0000
0001
,  // measure 31
0000
0001
0000
2000
,  // measure 32
0000
0000
0000
3000
,  // measure 33
0000
1000
0000
0200
,  // measure 34
0000
0000
0000
0300
,  // measure 35
0000
1000
0000
0001
,  // measure 36
0000
1000
0000
0001
,  // measure 37
0000
0010
0000
1000
,  // measure 38
0000
1000
0000
0002
,  // measure 39
0000
0000
0000
0000
,  // measure 40
0000
0003
0000
0100
,  // measure 41
0000
1000
0000
0010
,  // measure 42
0000
1000
0000
0001
,  // measure 43
0000
1000
0000
0010
,  // measure 44
0000
0100
0000
0002
,  // measure 45
0000
0000
0000
0003
,  // measure 46
0000
1000
0000
0001
,  // measure 47
0000
1000
0000
0100
,  // measure 48
0000
1000
0000
0001
,  // measure 49
0000
0001
0000
1000
,  // measure 50
0000
0001
0000
1000
,  // measure 51
0000
1000
0000
0001
,  // measure 52
0000
0001
0000
1000
,  // measure 53
1000
1000
0000
0001
,  // measure 54
0000
0002
0000
0003
,  // measure 55
0000
1000
0000
0100
,  // measure 56
0000
1000
1000
1000
,  // measure 57
0000
0001
0000
1000
,  // measure 58
0000
0001
0000
2000
,  // measure 59
0000
3000
0000
0010
,  // measure 60
0000
1000
0000
0010
,  // measure 61
0000
0001
0000
0010
,  // measure 62
0000
0001
0000
0010
,  // measure 63
0000
0001
0000
0100
,  // measure 64
0000
0010
0000
1000
,  // measure 65
0000
0001
0000
0010
,  // measure 66
0000
0001
0000
2000
,  // measure 67
0000
0000
0000
0000
,  // measure 68
3000
0000
0000
0000
;
