#TITLE:D-Generation X (Triple H & Shawn Michaels);
#SUBTITLE:DX;
#ARTIST:WWE;
#TITLETRANSLIT:;
#SUBTITLETRANSLIT:;
#ARTISTTRANSLIT:;
#GENRE:;
#CREDIT:Gorilla v1.1.3 (Dancing Monkeys v1.06);
#BANNER:;
#BACKGROUND:;
#LYRICSPATH:;
#CDTITLE:;
#MUSIC:D-Generation X - Are You Ready_ (Extended Version) [Entrance Theme].mp3;
#OFFSET:-0.131497;
#SAMPLESTART:40.079163;
#SAMPLELENGTH:12.000000;
#SELECTABLE:YES;
#BPMS:0.000000=174.227997
;
#STOPS:
;
#BGCHANGES:;
#KEYSOUNDS:;
#ATTACKS:;

//---------------dance-single - Basic----------------
#NOTES:
     dance-single:
     Basic:
     Easy:
     3:
     0.072093,0.083636,0.000000,0.039692,0.000000,89.000000,89.000000,0.000000,7.000000,0.000000,0.000000,0.072093,0.083636,0.000000,0.039692,0.000000,89.000000,89.000000,0.000000,7.000000,0.000000,0.000000:
// measure 0
0000
0000
0000
0000
,  // measure 1
0000
0000
0000
0000
,  // measure 2
1000
1000
0000
0000
,  // measure 3
1000
0000
0000
0000
,  // measure 4
0001
0001
0000
0000
,  // measure 5
0000
0000
0000
0000
,  // measure 6
1000
1000
0000
0000
,  // measure 7
0010
0000
0000
0000
,  // measure 8
0010
0010
0000
0000
,  // measure 9
1000
0000
0010
0000
,  // measure 10
1000
1000
0000
0010
,  // measure 11
0000
0000
0000
0000
,  // measure 12
1000
1000
0000
0000
,  // measure 13
0000
0000
0000
0000
,  // measure 14
1000
1000
0000
0000
,  // measure 15
1000
0000
0000
0000
,  // measure 16
0010
0010
0000
0000
,  // measure 17
0001
0000
1000
0000
,  // measure 18
1000
0000
0100
0000
,  // measure 19
0010
0000
0100
0000
,  // measure 20
1000
0000
0010
0000
,  // measure 21
1000
0000
0010
0000
,  // measure 22
0001
0000
0100
0000
,  // measure 23
0001
0000
1000
0000
,  // measure 24
0010
0000
0001
0000
,  // measure 25
1000
0000
0010
0000
,  // measure 26
1000
0000
0100
0000
,  // measure 27
0001
0000
0010
0000
,  // measure 28
1000
0000
0010
0000
,  // measure 29
0100
0000
0010
0000
,  // measure 30
2000
0000
0000
0000
,  // measure 31
0000
0000
0000
0000
,  // measure 32
3000
0000
0200
0000
,  // measure 33
0000
0000
0300
0000
,  // measure 34
0001
0000
2000
0000
,  // measure 35
0000
0000
0000
0000
,  // measure 36
3000
0000
0200
0000
,  // measure 37
0000
0000
0000
0000
,  // measure 38
0300
0000
0000
0100
,  // measure 39
0000
1000
0000
0000
,  // measure 40
0100
0000
1000
0000
,  // measure 41
0001
0000
0100
0000
,  // measure 42
0001
0000
0010
0000
,  // measure 43
0001
0000
0001
0000
,  // measure 44
0010
0000
1000
0000
,  // measure 45
0001
0000
0010
0000
,  // measure 46
1000
0000
0010
0000
,  // measure 47
0100
0000
0001
0000
,  // measure 48
1000
0000
0010
0000
,  // measure 49
0001
0000
0010
0000
,  // measure 50
1000
1000
0000
0100
,  // measure 51
0000
1000
0000
0002
,  // measure 52
0000
0000
0003
0000
,  // measure 53
1000
0000
0010
0000
,  // measure 54
1000
1000
0000
0002
,  // measure 55
0000
0000
0000
0003
,  // measure 56
0000
0001
0001
0000
,  // measure 57
2000
0000
0000
0000
,  // measure 58
0000
0000
3000
0000
,  // measure 59
1000
0000
0000
0000
;
