#VERSION:0.83;
#TITLE:Just Close Your Eyes (Christian);
#SUBTITLE:;
#ARTIST:WWE;
#TITLETRANSLIT:;
#SUBTITLETRANSLIT:;
#ARTISTTRANSLIT:;
#GENRE:;
#ORIGIN:;
#CREDIT:Gorilla v1.1.3 (Dancing Monkeys v1.06);
#BANNER:christian_wwe_wallpaper_by_cswallpapers_d4ztdd0-fullview.png;
#BACKGROUND:christian_wallpaper_by_cre5po_d3at0xq-fullview.png;
#PREVIEWVID:;
#JACKET:;
#CDIMAGE:;
#DISCIMAGE:;
#LYRICSPATH:;
#CDTITLE:;
#MUSIC:Christian WWE Theme Song - ''Just Close Your Eyes.mp3;
#OFFSET:-0.337458;
#SAMPLESTART:34.204124;
#SAMPLELENGTH:12.000000;
#SELECTABLE:YES;
#BPMS:0.000=177.165;
#STOPS:;
#DELAYS:;
#WARPS:;
#TIMESIGNATURES:0.000=4=4;
#TICKCOUNTS:0.000=4;
#COMBOS:0.000=1;
#SPEEDS:0.000=1.000=0.000=0;
#SCROLLS:0.000=1.000;
#FAKES:;
#LABELS:0.000=Song Start;
#BGCHANGES:;
#KEYSOUNDS:;
#ATTACKS:
;

//---------------dance-single - Basic----------------
#NOTEDATA:;
#CHARTNAME:Basic;
#STEPSTYPE:dance-single;
#DESCRIPTION:Basic;
#CHARTSTYLE:;
#DIFFICULTY:Easy;
#METER:3;
#RADARVALUES:0.097698,0.138092,0.000000,0.078910,0.000000,104.000000,104.000000,0.000000,12.000000,0.000000,0.000000,0.000000,0.000000,0.000000,0.097698,0.138092,0.000000,0.078910,0.000000,104.000000,104.000000,0.000000,12.000000,0.000000,0.000000,0.000000,0.000000,0.000000;
#CREDIT:Basic;
#NOTES:
// measure 0
1000
0000
0000
0001
,  // measure 1
0000
0000
0002
0000
,  // measure 2
0000
0000
0000
0000
,  // measure 3
0003
0000
0000
0010
,  // measure 4
0000
0100
0000
0100
,  // measure 5
0000
1000
0000
0010
,  // measure 6
0000
1000
0000
1000
,  // measure 7
1000
1000
0000
1000
,  // measure 8
0000
0010
0000
0001
,  // measure 9
0000
1000
0000
0020
,  // measure 10
0000
0000
0000
0000
,  // measure 11
0000
0030
0000
1000
,  // measure 12
0000
0010
0000
0010
,  // measure 13
0000
0001
0000
2000
,  // measure 14
0000
0000
0000
3000
,  // measure 15
0000
0010
0000
1000
,  // measure 16
0000
0010
0000
0010
,  // measure 17
0000
0001
0000
2000
,  // measure 18
0000
0000
0000
3000
,  // measure 19
0000
1000
0000
0002
,  // measure 20
0000
0000
0000
0000
,  // measure 21
0003
0000
0000
0100
,  // measure 22
0000
0001
0000
0010
,  // measure 23
0000
0001
0000
0002
,  // measure 24
0000
0000
0000
0000
,  // measure 25
0000
0003
0000
1000
,  // measure 26
0000
0000
0000
0010
,  // measure 27
0000
0010
0000
0001
,  // measure 28
0000
1000
0000
0100
,  // measure 29
0000
0001
0000
1000
,  // measure 30
0000
0010
0000
1000
,  // measure 31
0000
0010
0000
2000
,  // measure 32
0000
0000
0000
0000
,  // measure 33
3000
0000
0000
1000
,  // measure 34
0000
0000
0000
0010
,  // measure 35
0000
0010
0000
0002
,  // measure 36
0000
0000
0000
0000
,  // measure 37
0000
0003
0000
1000
,  // measure 38
0000
0000
0000
0001
,  // measure 39
0000
0001
0000
1000
,  // measure 40
0000
0010
0000
0001
,  // measure 41
0000
1000
0000
0001
,  // measure 42
0000
0001
0000
0001
,  // measure 43
0000
0001
0000
0001
,  // measure 44
0000
1000
0000
0010
,  // measure 45
0000
1000
0000
0010
,  // measure 46
0000
0100
0000
1000
,  // measure 47
0000
0010
0000
1000
,  // measure 48
0000
0010
0000
0100
,  // measure 49
0000
1000
0000
2000
,  // measure 50
0000
0000
0000
0000
,  // measure 51
3000
0000
0000
1000
,  // measure 52
0000
0010
0000
0100
,  // measure 53
0000
1000
0000
0010
,  // measure 54
0000
0100
0000
0001
,  // measure 55
0000
0010
0000
1000
,  // measure 56
0000
0010
0000
1000
,  // measure 57
0000
0010
0000
0200
,  // measure 58
0000
0000
0000
0000
,  // measure 59
0000
0300
0000
2000
,  // measure 60
0000
3000
0000
0100
,  // measure 61
0000
0010
0000
0001
,  // measure 62
0000
0010
0000
1000
,  // measure 63
0000
0010
0000
0100
,  // measure 64
0000
0100
0000
0100
,  // measure 65
0000
0100
0000
0100
,  // measure 66
0000
0100
0000
0100
,  // measure 67
0000
0100
0000
2000
,  // measure 68
0000
0000
0000
0000
,  // measure 69
0000
0000
0000
0000
,  // measure 70
3000
0000
0000
0000
;
