#TITLE:Break the Walls Down ( Chris Jericho);
#SUBTITLE:;
#ARTIST:WWE;
#TITLETRANSLIT:;
#SUBTITLETRANSLIT:;
#ARTISTTRANSLIT:;
#GENRE:;
#CREDIT:Gorilla v1.1.3 (Dancing Monkeys v1.06);
#BANNER:;
#BACKGROUND:;
#LYRICSPATH:;
#CDTITLE:;
#MUSIC:Chris Jericho 2002 Break The Walls Down Entrance Video.mp3;
#OFFSET:-0.825601;
#SAMPLESTART:41.655529;
#SAMPLELENGTH:12.000000;
#SELECTABLE:YES;
#BPMS:0.000000=146.951019
;
#STOPS:
;
#BGCHANGES:;
#KEYSOUNDS:;
#ATTACKS:;

//---------------dance-single - Basic----------------
#NOTES:
     dance-single:
     Basic:
     Easy:
     3:
     0.153492,0.148020,0.000000,0.030266,0.000000,142.000000,142.000000,0.000000,4.000000,0.000000,0.000000,0.153492,0.148020,0.000000,0.030266,0.000000,142.000000,142.000000,0.000000,4.000000,0.000000,0.000000:
// measure 0
0000
0000
0000
0000
,  // measure 1
0000
0000
0002
0000
,  // measure 2
0000
0000
0000
0000
,  // measure 3
0000
0000
0003
0000
,  // measure 4
2000
0000
0000
0000
,  // measure 5
0000
0000
0000
0000
,  // measure 6
0000
3000
0000
1000
,  // measure 7
0000
0010
0000
0001
,  // measure 8
0000
1000
0000
0010
,  // measure 9
0000
0100
0000
0001
,  // measure 10
0000
0010
0000
1000
,  // measure 11
0000
0001
0000
0010
,  // measure 12
0000
0001
0000
0010
,  // measure 13
0000
1000
0000
0100
,  // measure 14
0000
1000
0000
0010
,  // measure 15
0000
0001
0000
0100
,  // measure 16
0000
0010
0000
1000
,  // measure 17
0000
0010
0000
0100
,  // measure 18
0000
1000
0000
0010
,  // measure 19
0000
0001
0000
0100
,  // measure 20
0000
1000
0000
0010
,  // measure 21
0000
0001
0000
0010
,  // measure 22
0000
0100
0000
0010
,  // measure 23
0000
0001
0000
1000
,  // measure 24
0000
0010
0000
0100
,  // measure 25
0000
0001
0000
0100
,  // measure 26
0000
1000
0000
0002
,  // measure 27
0000
0000
0000
0003
,  // measure 28
0000
0001
0000
0010
,  // measure 29
0000
0010
0000
1000
,  // measure 30
0000
1000
0000
0002
,  // measure 31
0000
0000
0000
0003
,  // measure 32
0000
1000
0000
0010
,  // measure 33
0000
1000
0000
0100
,  // measure 34
0000
1000
0000
0001
,  // measure 35
0000
1000
0000
0100
,  // measure 36
0000
0010
0000
0001
,  // measure 37
0000
0100
0000
0010
,  // measure 38
0000
1000
0000
0001
,  // measure 39
0000
1000
0000
0100
,  // measure 40
0000
0001
0000
0010
,  // measure 41
0000
1000
0000
0100
,  // measure 42
0000
1000
0000
0001
,  // measure 43
0000
0100
0000
0010
,  // measure 44
0000
1000
0000
0010
,  // measure 45
0000
0001
0000
1000
,  // measure 46
0000
0010
0000
0001
,  // measure 47
0000
1000
0000
0100
,  // measure 48
0000
1000
0000
0010
,  // measure 49
0000
0001
0000
0100
,  // measure 50
0000
1000
0000
0100
,  // measure 51
0000
0001
0000
0100
,  // measure 52
0000
0010
0000
0100
,  // measure 53
0000
0001
0000
0010
,  // measure 54
0000
1000
0000
0010
,  // measure 55
0000
1000
0000
0001
,  // measure 56
0000
1000
0000
0010
,  // measure 57
0000
1000
0000
0100
,  // measure 58
0000
0010
0000
0001
,  // measure 59
0000
1000
0000
0100
,  // measure 60
0000
0010
0000
1000
,  // measure 61
0000
0010
0000
0001
,  // measure 62
0000
1000
0000
0010
,  // measure 63
0000
1000
0000
0100
,  // measure 64
0000
0001
0000
1000
,  // measure 65
0000
0001
0000
0010
,  // measure 66
0000
1000
0000
0001
,  // measure 67
0000
1000
0000
1000
,  // measure 68
0000
0010
0000
0001
,  // measure 69
0000
1000
0000
0010
,  // measure 70
0000
1000
0000
1000
,  // measure 71
0000
0001
0000
0010
,  // measure 72
0000
0001
0000
1000
,  // measure 73
0000
1000
0000
0100
,  // measure 74
0000
0100
0000
0001
,  // measure 75
0000
0010
0000
0100
,  // measure 76
0000
0001
0000
1000
,  // measure 77
0000
0001
0000
0010
,  // measure 78
0000
1000
0000
0000
;
