#TITLE:Next Big Thing (Brock Lesnar);
#SUBTITLE:;
#ARTIST:WWE;
#TITLETRANSLIT:;
#SUBTITLETRANSLIT:;
#ARTISTTRANSLIT:;
#GENRE:;
#CREDIT:Gorilla v1.1.3 (Dancing Monkeys v1.06);
#BANNER:games-wwe-wallpaper-preview.png;
#BACKGROUND:d9ncy1l-4589e41c-da02-4f00-b029-5f964940608d.png;
#LYRICSPATH:;
#CDTITLE:;
#MUSIC:Brock Lesnar's 2002 v4 Titantron Entrance Video feat. Next Big Thing v1 Theme.mp3;
#OFFSET:-0.920354;
#SAMPLESTART:34.866104;
#SAMPLELENGTH:12.000000;
#SELECTABLE:YES;
#BPMS:0.000000=190.892822
;
#STOPS:
;
#BGCHANGES:;
#KEYSOUNDS:;
#ATTACKS:;

//---------------dance-single - Basic----------------
#NOTES:
     dance-single:
     Basic:
     Easy:
     2:
     0.101656,0.100942,0.000000,0.015991,0.000000,89.000000,89.000000,0.000000,2.000000,0.000000,0.000000,0.101656,0.100942,0.000000,0.015991,0.000000,89.000000,89.000000,0.000000,2.000000,0.000000,0.000000:
// measure 0
2000
0000
0000
0000
,  // measure 1
3000
0000
0000
0000
,  // measure 2
0000
1000
0000
0000
,  // measure 3
0001
0000
0001
0001
,  // measure 4
0000
0001
0000
0000
,  // measure 5
1000
0000
1000
1000
,  // measure 6
0000
0100
0000
0000
,  // measure 7
0001
0000
0000
0100
,  // measure 8
0000
0001
0000
0000
,  // measure 9
0001
0000
0000
0000
,  // measure 10
0000
0010
0000
0000
,  // measure 11
1000
0000
1000
1000
,  // measure 12
0000
0001
0000
0001
,  // measure 13
0000
0100
0000
0000
,  // measure 14
0000
0001
0000
1000
,  // measure 15
0000
0000
0010
0000
,  // measure 16
0000
1000
0000
1000
,  // measure 17
1000
0000
0000
0000
,  // measure 18
0000
0100
0000
0010
,  // measure 19
0000
1000
0000
0001
,  // measure 20
0000
0001
0000
0010
,  // measure 21
0000
0100
0000
0010
,  // measure 22
0000
1000
0000
1000
,  // measure 23
0000
0010
0000
0001
,  // measure 24
0000
1000
0000
1000
,  // measure 25
0000
0010
0000
1000
,  // measure 26
0000
0010
0000
0001
,  // measure 27
0000
0100
0000
0001
,  // measure 28
0000
1000
0000
0010
,  // measure 29
0000
1000
0000
0010
,  // measure 30
0000
0100
0000
0000
,  // measure 31
0001
0000
0000
0100
,  // measure 32
0000
0001
0000
0100
,  // measure 33
0000
1000
0000
0010
,  // measure 34
0000
1000
0000
0010
,  // measure 35
0000
1000
0000
0010
,  // measure 36
0000
0100
0000
1000
,  // measure 37
0000
0001
0000
0100
,  // measure 38
0000
0001
0000
0100
,  // measure 39
0000
1000
0000
0001
,  // measure 40
0000
0100
0000
0010
,  // measure 41
0000
0001
0000
1000
,  // measure 42
0000
0010
0000
0000
,  // measure 43
0100
0000
0010
0010
,  // measure 44
0000
1000
0000
0000
,  // measure 45
0100
0000
0010
0010
,  // measure 46
0000
1000
0000
0000
,  // measure 47
0010
0000
0001
0000
,  // measure 48
0100
0100
0000
0000
,  // measure 49
1000
0000
0020
0000
,  // measure 50
0000
0000
0030
0000
;
