#TITLE:Can You Dig It (Booker T);
#SUBTITLE:;
#ARTIST:WWE;
#TITLETRANSLIT:;
#SUBTITLETRANSLIT:;
#ARTISTTRANSLIT:;
#GENRE:;
#CREDIT:Gorilla v1.1.3 (Dancing Monkeys v1.06);
#BANNER:booker_t_wallpaper_by_rahul18dx_d64v7ai-fullview.png;
#BACKGROUND:Cq4MjUFUMAAUTRR.png;
#LYRICSPATH:;
#CDTITLE:;
#MUSIC:Booker T Entrance Video.mp3;
#OFFSET:-0.455510;
#SAMPLESTART:34.267303;
#SAMPLELENGTH:12.000000;
#SELECTABLE:YES;
#BPMS:0.000000=177.452881
;
#STOPS:
;
#BGCHANGES:;
#KEYSOUNDS:;
#ATTACKS:;

//---------------dance-single - Basic----------------
#NOTES:
     dance-single:
     Basic:
     Easy:
     3:
     0.216258,0.250198,0.000000,0.000000,0.000000,126.000000,126.000000,0.000000,0.000000,0.000000,0.000000,0.216258,0.250198,0.000000,0.000000,0.000000,126.000000,126.000000,0.000000,0.000000,0.000000,0.000000:
// measure 0
0000
0000
0000
0000
,  // measure 1
0000
0001
0000
1000
,  // measure 2
1000
0000
0001
0000
,  // measure 3
0000
0000
0001
0001
,  // measure 4
0000
0000
0010
0000
,  // measure 5
0000
1000
0000
0100
,  // measure 6
0000
0001
0000
1000
,  // measure 7
0000
0010
0000
0000
,  // measure 8
1000
0000
0000
0001
,  // measure 9
0001
0000
0000
0100
,  // measure 10
0000
0000
0001
0000
,  // measure 11
1000
0000
0010
0000
,  // measure 12
0001
0000
0100
0000
,  // measure 13
0010
0000
0001
0000
,  // measure 14
1000
0000
0100
0000
,  // measure 15
1000
0000
0000
0001
,  // measure 16
0001
0000
0000
1000
,  // measure 17
0000
0000
0001
0010
,  // measure 18
0000
0000
1000
0100
,  // measure 19
0000
0001
0001
0100
,  // measure 20
0000
1000
0010
0000
,  // measure 21
1000
1000
0010
0000
,  // measure 22
1000
0000
0000
0001
,  // measure 23
1000
0000
0000
0001
,  // measure 24
0000
0000
0001
0010
,  // measure 25
0000
0000
1000
0100
,  // measure 26
0000
0001
0001
0100
,  // measure 27
0000
1000
0010
0000
,  // measure 28
1000
1000
0100
0000
,  // measure 29
1000
0000
0000
0001
,  // measure 30
1000
0000
0000
0100
,  // measure 31
0000
0000
0001
0010
,  // measure 32
0000
0000
1000
0100
,  // measure 33
0000
0001
0001
0100
,  // measure 34
0000
1000
0010
0000
,  // measure 35
1000
1000
0100
0000
,  // measure 36
1000
0000
0000
0001
,  // measure 37
1000
1000
0000
0100
,  // measure 38
0000
0000
0001
0010
,  // measure 39
0000
0000
1000
0100
,  // measure 40
0000
1000
1000
0100
,  // measure 41
0000
1000
0010
0000
,  // measure 42
1000
0010
0000
0000
,  // measure 43
1000
0000
0000
0001
,  // measure 44
1000
0000
0000
0001
,  // measure 45
0000
0000
0001
0010
,  // measure 46
0000
0000
1000
0100
,  // measure 47
0000
1000
1000
0100
,  // measure 48
0000
1000
0010
0000
,  // measure 49
1000
0010
0000
0000
,  // measure 50
1000
0000
0000
0001
,  // measure 51
0001
0000
0000
1000
,  // measure 52
0000
0000
0001
0010
,  // measure 53
0000
0000
1000
0100
,  // measure 54
0000
1000
1000
0010
,  // measure 55
0000
1000
0010
0000
,  // measure 56
0001
0001
0100
0000
,  // measure 57
1000
0000
0000
0001
,  // measure 58
0001
0000
0000
1000
,  // measure 59
1000
0000
0010
0000
;
