#VERSION:0.83;
#TITLE:Phenomenal (AJ STYLES);
#SUBTITLE:;
#ARTIST:WWE;
#TITLETRANSLIT:;
#SUBTITLETRANSLIT:;
#ARTISTTRANSLIT:;
#GENRE:;
#ORIGIN:;
#CREDIT:Gorilla v1.1.3 (Dancing Monkeys v1.06);
#BANNER:ecc0650b2c8757e3abd7bd6dd16cc94b.png;
#BACKGROUND:WWE_2K19_Wallpaper_AJ_Styles_Artwork-15092-1600.png;
#PREVIEWVID:;
#JACKET:;
#CDIMAGE:;
#DISCIMAGE:;
#LYRICSPATH:;
#CDTITLE:;
#MUSIC:AJ Styles - Phenomenal (Entrance Theme).mp3;
#OFFSET:-1.176304;
#SAMPLESTART:42.992630;
#SAMPLELENGTH:12.000000;
#SELECTABLE:YES;
#BPMS:0.000=154.963;
#STOPS:;
#DELAYS:;
#WARPS:;
#TIMESIGNATURES:0.000=4=4;
#TICKCOUNTS:0.000=4;
#COMBOS:0.000=1;
#SPEEDS:0.000=1.000=0.000=0;
#SCROLLS:0.000=1.000;
#FAKES:;
#LABELS:0.000=Song Start;
#BGCHANGES:;
#KEYSOUNDS:;
#ATTACKS:
;

//---------------dance-single - Basic----------------
#NOTEDATA:;
#CHARTNAME:Basic;
#STEPSTYPE:dance-single;
#DESCRIPTION:Basic;
#CHARTSTYLE:;
#DIFFICULTY:Easy;
#METER:3;
#RADARVALUES:0.162326,0.174169,0.008059,0.008059,0.000000,141.000000,140.000000,1.000000,1.000000,0.000000,0.000000,0.000000,0.000000,0.000000,0.162326,0.174169,0.008059,0.008059,0.000000,141.000000,140.000000,1.000000,1.000000,0.000000,0.000000,0.000000,0.000000,0.000000;
#CREDIT:Basic;
#NOTES:
// measure 0
0000
0000
0000
1000
,  // measure 1
0000
0000
0000
1000
,  // measure 2
0000
0000
0000
1000
,  // measure 3
0000
0000
0000
0001
,  // measure 4
0000
0000
0000
0001
,  // measure 5
0000
0000
0001
0000
,  // measure 6
0000
1000
0000
2000
,  // measure 7
0000
0000
0000
0000
,  // measure 8
0000
0000
0000
0000
,  // measure 9
3000
0000
0001
0000
,  // measure 10
1000
0000
0000
0010
,  // measure 11
1000
0001
0000
0100
,  // measure 12
0001
0000
0000
1000
,  // measure 13
0001
0001
0000
1000
,  // measure 14
0000
1000
0000
0100
,  // measure 15
0001
1000
0000
0010
,  // measure 16
0000
1000
0000
0100
,  // measure 17
0001
0001
0000
1000
,  // measure 18
1000
0010
0000
0010
,  // measure 19
1000
0010
0000
0010
,  // measure 20
1000
0001
0000
0100
,  // measure 21
1000
0001
0000
0100
,  // measure 22
1000
0000
0000
0010
,  // measure 23
1000
0001
0000
0100
,  // measure 24
0001
0001
0000
1000
,  // measure 25
1000
0001
0000
0100
,  // measure 26
1000
1000
0000
0010
,  // measure 27
1000
0001
0000
0100
,  // measure 28
0001
0001
0000
1000
,  // measure 29
1000
0010
0010
0000
,  // measure 30
0000
0001
0000
0010
,  // measure 31
0000
1000
0000
0100
,  // measure 32
0000
1000
0000
0100
,  // measure 33
0000
0100
0000
0001
,  // measure 34
0000
0001
0000
0010
,  // measure 35
0000
1000
0000
0010
,  // measure 36
0000
0001
0000
0100
,  // measure 37
0000
0001
0000
1001
,  // measure 38
0000
0010
0000
0001
,  // measure 39
0001
0001
0000
0100
,  // measure 40
0000
0010
0000
1000
,  // measure 41
0000
0001
0000
0100
,  // measure 42
0000
0010
0000
1000
,  // measure 43
0000
0010
0000
0010
,  // measure 44
0000
0001
0000
0100
,  // measure 45
0000
0001
0000
0010
,  // measure 46
0000
1000
0000
0010
,  // measure 47
0000
0001
0000
0100
,  // measure 48
0000
0001
0000
1000
,  // measure 49
0000
0001
0000
0100
,  // measure 50
0000
0010
0000
1000
,  // measure 51
1000
1000
0000
0001
,  // measure 52
0001
0001
0000
1000
,  // measure 53
1000
1000
0000
0001
,  // measure 54
0001
0001
0000
1000
,  // measure 55
1000
1000
0000
0001
,  // measure 56
0001
0001
0000
0100
,  // measure 57
0100
0100
0000
1000
,  // measure 58
1000
1000
0000
0010
,  // measure 59
0010
0010
0000
0001
,  // measure 60
0001
0001
0000
1000
,  // measure 61
1000
1000
0000
0010
;
