#TITLE:Wop - J. Dash (Sped up) Drop it to the floor then wop, wop, wop, wop;
#SUBTITLE:;
#ARTIST:Dancing Monkeys Project;
#TITLETRANSLIT:;
#SUBTITLETRANSLIT:;
#ARTISTTRANSLIT:;
#GENRE:;
#CREDIT:Gorilla v1.1.3 (Dancing Monkeys v1.06);
#BANNER:;
#BACKGROUND:hqdefault.png;
#LYRICSPATH:;
#CDTITLE:;
#MUSIC:Wop - J. Dash (Sped up) Drop it to the floor then wop, wop, wop, wop.mp3;
#OFFSET:-1.379771;
#SAMPLESTART:50.069351;
#SAMPLELENGTH:12.000000;
#SELECTABLE:YES;
#BPMS:0.000000=123.230011
;
#STOPS:
;
#BGCHANGES:;
#KEYSOUNDS:;
#ATTACKS:;

//---------------dance-single - Basic----------------
#NOTES:
     dance-single:
     Basic:
     Easy:
     3:
     0.233397,0.223443,0.000000,0.006407,0.000000,255.000000,255.000000,0.000000,1.000000,0.000000,0.000000,0.233397,0.223443,0.000000,0.006407,0.000000,255.000000,255.000000,0.000000,1.000000,0.000000,0.000000:
// measure 0
1000
0001
1000
0001
,  // measure 1
1000
0020
0000
0000
,  // measure 2
0000
0000
0030
0000
,  // measure 3
1000
1000
0001
0100
,  // measure 4
0001
0100
0010
1000
,  // measure 5
0001
1000
0001
1000
,  // measure 6
0001
0100
0010
1000
,  // measure 7
0001
0010
0001
0100
,  // measure 8
0001
1000
0010
0001
,  // measure 9
1000
0100
0010
1000
,  // measure 10
0001
0100
0001
0001
,  // measure 11
1000
0000
0010
0100
,  // measure 12
0000
1000
1000
0010
,  // measure 13
0001
0000
0010
0100
,  // measure 14
0100
1000
0010
0001
,  // measure 15
1000
1000
0100
0001
,  // measure 16
0000
0001
0000
0001
,  // measure 17
0000
0010
0010
0100
,  // measure 18
0000
1000
0000
0010
,  // measure 19
0001
0000
0010
0100
,  // measure 20
0000
1000
0100
0000
,  // measure 21
1000
0001
0000
0100
,  // measure 22
0000
1000
0100
0100
,  // measure 23
1000
0001
0000
0100
,  // measure 24
0000
1000
0100
0000
,  // measure 25
1000
0001
0000
0100
,  // measure 26
0000
0001
0010
0001
,  // measure 27
1000
0010
1000
0010
,  // measure 28
0001
0100
0010
1000
,  // measure 29
0001
0100
0001
0001
,  // measure 30
0001
0100
0010
1000
,  // measure 31
0001
0010
0001
0100
,  // measure 32
1000
0001
0100
0010
,  // measure 33
0001
1000
0100
0010
,  // measure 34
1000
0001
0010
0100
,  // measure 35
0001
0000
0010
0100
,  // measure 36
0000
0100
1000
0010
,  // measure 37
0001
0000
0010
0100
,  // measure 38
0000
1000
0010
0001
,  // measure 39
0000
1000
0100
0001
,  // measure 40
0000
0000
0001
0000
,  // measure 41
0001
0000
0010
0100
,  // measure 42
0000
1000
0000
0010
,  // measure 43
1000
0000
0100
1000
,  // measure 44
0000
1000
0100
0000
,  // measure 45
1000
0001
0000
0100
,  // measure 46
0000
1000
0100
0000
,  // measure 47
0001
0000
0010
0100
,  // measure 48
0000
1000
0100
0000
,  // measure 49
0001
0000
0010
0001
,  // measure 50
0000
0001
0010
0001
,  // measure 51
1000
0010
1000
0010
,  // measure 52
1000
0001
0100
0010
,  // measure 53
0001
0001
0001
0001
,  // measure 54
0001
0100
0010
1000
,  // measure 55
0001
0010
0001
0100
,  // measure 56
1000
0001
0100
0010
,  // measure 57
1000
0100
0010
1000
,  // measure 58
0001
0100
0010
1000
,  // measure 59
1000
0010
0001
0001
,  // measure 60
1000
0001
0100
0010
,  // measure 61
0001
0100
0001
0001
,  // measure 62
1000
0001
0100
0010
,  // measure 63
0001
0010
0001
0100
,  // measure 64
1000
0001
0100
0010
,  // measure 65
1000
0100
0010
1000
,  // measure 66
1000
0001
0100
0010
,  // measure 67
0001
0000
0010
0100
,  // measure 68
0000
1000
0100
0000
,  // measure 69
1000
0001
0000
0100
,  // measure 70
0000
1000
0100
0000
,  // measure 71
0001
0000
0010
0100
,  // measure 72
0000
1000
0100
0000
,  // measure 73
1000
0100
0010
1000
,  // measure 74
0000
0001
0010
0001
,  // measure 75
1000
0010
1000
0010
,  // measure 76
1000
0001
0100
0010
,  // measure 77
0001
0100
0010
0000
;

//---------------dance-single - Standard----------------
#NOTES:
     dance-single:
     Standard:
     Medium:
     4:
     0.293805,0.323792,0.128139,0.006407,0.000000,321.000000,301.000000,20.000000,1.000000,0.000000,0.000000,0.293805,0.323792,0.128139,0.006407,0.000000,321.000000,301.000000,20.000000,1.000000,0.000000,0.000000:
0000
0000
0000
0000
0001
0000
0000
0000
,
0000
0000
2000
0000
0000
0000
0000
0000
,
0000
0000
3000
0000
0001
0000
0000
0000
,
0001
0000
0001
0000
0100
0000
0010
0000
,
0001
0000
0010
0001
1000
0000
0010
0000
,
1000
0000
0100
0000
0110
0000
0100
0000
,
0001
0000
0010
0001
1000
0000
0010
0000
,
1000
0000
0001
1000
0010
0000
1000
0000
,
0001
0000
0010
0000
0100
0000
0010
0000
,
1000
0000
0100
0010
0001
0000
0011
0000
,
1000
0100
1000
0000
0011
0000
1000
0000
,
0001
0000
0100
0000
0001
0000
0100
0000
,
1000
0000
1010
0000
1000
0000
0100
0000
,
0001
0000
0100
0000
0001
0000
1000
0000
,
0000
0000
1000
0000
0010
0000
1001
0000
,
0000
0000
1100
0000
0100
0000
0010
0000
,
0000
0000
0000
0000
0001
0100
0000
0000
,
0001
0000
0100
0000
0001
0000
1000
0000
,
0000
0000
1000
0000
0000
0000
0100
0000
,
0001
0000
0100
0000
0001
0000
1000
0000
,
0000
0000
1000
0000
0010
0000
0000
0000
,
1000
0000
0010
0000
0100
0000
0001
0000
,
0000
0000
1000
0000
0010
0000
0000
0000
,
1000
0000
0010
0000
0100
0000
0001
0000
,
0000
0000
1000
0000
0010
0000
0000
0000
,
1000
0000
0010
0000
0100
0000
0001
0000
,
0000
0000
0001
0100
0010
0000
0100
0000
,
1000
0000
0010
0000
0101
0000
0001
0000
,
0001
0000
0010
0001
1000
0000
0010
0000
,
1000
0100
1000
0000
0011
0000
1000
0000
,
0001
0000
0010
0001
1000
0000
0010
0000
,
1000
0000
0001
1000
0010
0000
1000
0000
,
0001
0000
0010
0001
1000
0000
0010
0000
,
1000
0000
0010
1000
0001
0000
0010
0000
,
1000
0000
0010
1000
0001
0000
0010
0000
,
0001
0000
0100
0000
0001
0000
1000
0000
,
1000
0000
1010
0000
1000
0000
0100
0000
,
0001
0000
0100
0000
0001
0000
1000
0000
,
0000
0000
1000
0000
0010
0000
1001
0000
,
0000
0000
1100
0000
0100
0000
0010
0000
,
0000
0000
0000
0000
0001
0100
0000
0000
,
0001
0000
0100
0000
0001
0000
1000
0000
,
0000
0000
1000
0000
0000
0000
0100
0000
,
1000
0000
0000
0100
1000
0000
0101
0000
,
0000
0000
1000
0000
0010
0000
0000
0000
,
1000
0000
0010
0000
0100
0000
0001
0000
,
0000
0000
1000
0000
0010
0000
0000
0000
,
0001
0000
0100
0000
0001
0000
1000
0000
,
0000
0000
1000
0000
0010
0000
0000
0000
,
0001
0000
0010
0000
0100
0000
0010
0000
,
0000
0000
0001
0100
0010
0000
0100
0000
,
1000
0000
0010
0000
0101
0000
0001
0000
,
0001
0000
0010
0001
1000
0000
0010
0000
,
1000
0100
1000
0000
0011
0000
1000
0000
,
0001
0000
0010
0001
1000
0000
0010
0000
,
1000
0000
0001
1000
0010
0000
1000
0000
,
0001
0000
0010
0001
1000
0000
0010
0000
,
1000
0000
0100
0010
0001
0000
0011
0000
,
0001
0000
0010
0001
1000
0000
0010
0000
,
0001
0000
0100
0000
0110
0000
1000
0000
,
0001
0000
0010
0001
1000
0000
0010
0000
,
1000
0100
1000
0000
0011
0000
1000
0000
,
0001
0000
0010
0001
1000
0000
0010
0000
,
1000
0000
0001
1000
0010
0000
1000
0000
,
0001
0000
0010
0001
1000
0000
0010
0000
,
1000
0000
0100
0010
0001
0000
0011
0000
,
0001
0000
0010
0001
1000
0000
0010
0000
,
0001
0000
0100
0000
0001
0000
1000
0000
,
0000
0000
1000
0000
0010
0000
0000
0000
,
1000
0000
0010
0000
0100
0000
0001
0000
,
0000
0000
1000
0000
0010
0000
0000
0000
,
0001
0000
0100
0000
0001
0000
1000
0000
,
0000
0000
1000
0000
0010
0000
0000
0000
,
1000
0000
0100
0010
0001
0000
0011
0000
,
0000
0000
0001
0100
0010
0000
0100
0000
,
1000
0000
0010
0000
0101
0000
0001
0000
,
0001
0000
0010
0001
1000
0000
0010
0000
,
1000
0000
0010
0000
0100
0000
0010
0000
,
;

//---------------dance-single - Heavy----------------
#NOTES:
     dance-single:
     Heavy:
     Hard:
     5:
     0.329501,0.348699,0.128139,0.006407,0.000000,360.000000,340.000000,20.000000,1.000000,0.000000,0.000000,0.329501,0.348699,0.128139,0.006407,0.000000,360.000000,340.000000,20.000000,1.000000,0.000000,0.000000:
0000
0000
0000
0000
0001
0000
0000
0000
,
0000
0000
0020
0000
0000
0000
0000
0000
,
0000
0000
0030
0000
0001
0000
0000
0000
,
1000
0000
1000
0001
1000
0000
0100
0000
,
0001
1000
0001
0100
0001
0000
1000
0000
,
0001
0010
0100
0000
1100
0000
0010
0000
,
0001
1000
0001
0100
0001
0000
1000
0000
,
1000
0000
0001
0100
0010
0000
1000
0000
,
1000
0100
0000
0010
0100
0000
1000
0000
,
0001
0010
0000
0100
1000
0000
0110
0000
,
1000
0010
1000
0000
0101
0000
1000
0000
,
1000
0000
0000
0001
0100
0000
0001
0000
,
0000
0000
0011
0000
0001
0000
1000
0001
,
0001
0010
0000
0001
1000
0000
0001
0000
,
0000
0000
1000
0000
0010
0000
0110
0000
,
0000
0000
1001
0000
0010
0000
1000
0000
,
0000
0000
0000
0000
0001
0010
0000
0000
,
0001
0010
0000
0001
1000
0000
0001
0000
,
0000
0000
1000
0000
0000
0000
0100
0000
,
0001
0010
0000
0001
1000
0000
0001
0000
,
0000
0000
1000
0001
1000
0000
0000
0000
,
1000
0000
0100
1000
0001
0000
0010
0000
,
0000
0000
1000
0001
1000
0000
0000
0000
,
1000
0000
0100
1000
0001
0000
0010
0000
,
0000
0000
1000
0001
1000
0000
0000
0000
,
1000
0000
0100
1000
0001
0000
0010
0000
,
0000
0001
0100
0001
0100
0000
0010
0000
,
1000
0100
1000
0000
1001
0000
1000
0000
,
0001
1000
0001
0100
0001
0000
1000
0000
,
1000
0010
1000
0000
0101
0000
1000
0000
,
0001
1000
0001
0100
0001
0000
1000
0000
,
1000
0000
0001
0100
0010
0000
1000
0000
,
1000
0010
0000
1000
0001
0000
0100
0000
,
0001
0010
0000
0001
1000
0000
0100
0000
,
1000
0010
0000
1000
0001
0000
0100
0000
,
0001
0010
0000
0001
1000
0000
0001
0000
,
0000
0000
0011
0000
0001
0000
1000
0001
,
0001
0010
0000
0001
1000
0000
0001
0000
,
0000
0000
1000
0000
0010
0000
0110
0000
,
0000
0000
1001
0000
0010
0000
1000
0000
,
0000
0000
0000
0000
0001
0010
0000
0000
,
0001
0010
0000
0001
1000
0000
0001
0000
,
0000
0000
1000
0000
0000
0000
0100
0000
,
0001
0000
0000
0010
0100
0000
0011
0000
,
0000
0000
1000
0001
1000
0000
0000
0000
,
1000
0000
0100
1000
0001
0000
0010
0000
,
0000
0000
1000
0001
1000
0000
0000
0000
,
0001
0010
0000
0001
1000
0000
0001
0000
,
0000
0000
1000
0001
1000
0000
0000
0000
,
1000
0100
0000
0010
0100
0000
1000
0000
,
0000
0001
0100
0001
0100
0000
0010
0000
,
1000
0100
1000
0000
1001
0000
1000
0000
,
1000
0010
0000
1000
0001
0000
0100
0000
,
1000
0010
1000
0000
0101
0000
1000
0000
,
0001
1000
0001
0100
0001
0000
1000
0000
,
1000
0000
0001
0100
0010
0000
1000
0000
,
1000
0010
0000
1000
0001
0000
0100
0000
,
0001
0010
0000
0100
1000
0000
0110
0000
,
0001
1000
0001
0100
0001
0000
1000
0000
,
0001
0000
1000
0000
1010
0000
0100
0000
,
1000
0010
0000
1000
0001
0000
0100
0000
,
1000
0010
1000
0000
0101
0000
1000
0000
,
1000
0010
0000
1000
0001
0000
0100
0000
,
1000
0000
0001
0100
0010
0000
1000
0000
,
1000
0010
0000
1000
0001
0000
0100
0000
,
0001
0010
0000
0100
1000
0000
0110
0000
,
1000
0010
0000
1000
0001
0000
0100
0000
,
0001
0010
0000
0001
1000
0000
0001
0000
,
0000
0000
1000
0001
1000
0000
0000
0000
,
1000
0000
0100
1000
0001
0000
0010
0000
,
0000
0000
1000
0001
1000
0000
0000
0000
,
0001
0010
0000
0001
1000
0000
0001
0000
,
0000
0000
1000
0001
1000
0000
0000
0000
,
0001
0010
0000
0100
1000
0000
0110
0000
,
0000
0001
0100
0001
0100
0000
0010
0000
,
1000
0100
1000
0000
1001
0000
1000
0000
,
1000
0010
0000
1000
0001
0000
0100
0000
,
0001
0000
1000
0000
0010
0000
1000
0000
,
;
